<?xml version="1.0" standalone="no"?>
<!DOCTYPE svg PUBLIC "-//W3C//DTD SVG 1.1//EN" "http://www.w3.org/Graphics/SVG/1.1/DTD/svg11.dtd" >
<svg xmlns="http://www.w3.org/2000/svg">
<metadata>Generated by IcoMoon</metadata>
<defs>
<font id="icomoon" horiz-adv-x="1024">
<font-face units-per-em="1024" ascent="960" descent="-64" />
<missing-glyph horiz-adv-x="1024" />
<glyph unicode="&#x20;" horiz-adv-x="512" d="" />
<glyph unicode="&#x64c;" glyph-name="player-back" d="M870.065-64c-6.693 0-13.386 3.346-16.732 6.693l-619.085 481.882c-6.693 6.693-10.039 13.386-10.039 23.425s3.346 16.732 10.039 23.425l619.085 481.882c10.039 6.693 20.078 6.693 30.118 3.346s16.732-16.732 16.732-26.771v-963.765c0-10.039-6.693-20.078-16.732-26.771-3.346-3.346-10.039-3.346-13.386-3.346zM297.83 448l542.118-421.647v843.294l-542.118-421.647zM153.935-64c-16.732 0-30.118 13.386-30.118 30.118v963.765c0 16.732 13.386 30.118 30.118 30.118s30.118-13.386 30.118-30.118v-963.765c0-16.732-13.386-30.118-30.118-30.118z" />
<glyph unicode="&#x64d;" glyph-name="player-next" d="M153.935 960c6.693 0 13.386-3.346 16.732-6.693l619.085-481.882c6.693-6.693 10.039-13.386 10.039-23.425s-3.346-16.732-10.039-23.425l-619.085-481.882c-10.039-6.693-20.078-6.693-30.118-3.346s-16.732 16.732-16.732 26.771v963.765c0 10.039 6.693 20.078 16.732 26.771 3.346 3.346 10.039 3.346 13.386 3.346zM726.17 448l-542.118 421.647v-846.641l542.118 424.993zM870.065 960c16.732 0 30.118-13.386 30.118-30.118v-963.765c0-16.732-13.386-30.118-30.118-30.118s-30.118 13.386-30.118 30.118v963.765c0 16.732 13.386 30.118 30.118 30.118z" />
<glyph unicode="&#x64e;" glyph-name="player-play" d="M778.24 461.653l-375.467 256c-5.12 3.413-11.947 3.413-17.067 1.707-6.827-3.413-10.24-8.533-10.24-15.36v-512c0-6.827 3.413-11.947 8.533-15.36 3.413-1.707 5.12-1.707 8.533-1.707s6.827 1.707 10.24 3.413l375.467 256c5.12 3.413 6.827 8.533 6.827 13.653s-3.413 10.24-6.827 13.653zM409.6 224.427v447.147l327.68-223.573-327.68-223.573zM512 960c-281.6 0-512-230.4-512-512s230.4-512 512-512 512 230.4 512 512-230.4 512-512 512zM512-29.867c-262.827 0-477.867 215.040-477.867 477.867s215.040 477.867 477.867 477.867 477.867-215.040 477.867-477.867-215.040-477.867-477.867-477.867z" />
<glyph unicode="&#x64f;" glyph-name="play-small" d="M880.152 467.505l-707.048 487.619c-7.314 4.876-17.067 7.314-26.819 2.438-7.314-4.876-12.19-12.19-12.19-21.943v-975.238c0-9.752 4.876-17.067 12.19-21.943 4.876-2.438 7.314-2.438 12.19-2.438s9.752 2.438 14.629 4.876l707.048 487.619c7.314 4.876 9.752 12.19 9.752 19.505s-4.876 14.629-9.752 19.505z" />
<glyph unicode="&#x650;" glyph-name="amount" d="M1009.551 180.199h-995.101c-8.188 0-14.45 6.262-14.45 14.45v506.702c0 8.188 6.262 14.45 14.45 14.45h995.101c8.188 0 14.45-6.262 14.45-14.45v-506.702c0-7.706-6.743-14.45-14.45-14.45zM913.702 209.099h80.918v81.4c-41.422-6.262-74.657-39.496-80.918-81.4zM139.199 209.099h745.121c6.743 57.799 52.5 103.556 110.299 110.299v257.204c-57.799 6.743-103.556 52.5-110.299 110.299h-745.121c-6.262-57.799-52.5-103.556-110.299-110.299v-257.204c57.799-6.262 104.038-52.5 110.299-110.299zM28.9 209.099h81.4c-6.262 41.904-39.496 75.138-81.4 81.4v-81.4zM28.9 686.901v-80.918c41.904 6.262 75.138 39.496 81.4 80.918h-81.4zM913.702 686.901c6.262-41.904 39.496-74.657 80.918-80.918v80.918h-80.918zM512.001 252.448c-79.955 0-144.978 87.661-144.978 195.552s65.024 195.552 144.978 195.552 144.978-87.661 144.978-195.552-65.024-195.552-144.978-195.552zM418.56 348.779c21.193-40.941 54.909-67.432 93.441-67.432s72.248 26.491 93.441 67.432v0l-2.408 7.706c-6.743 21.675-26.009 36.124-48.647 36.124h-84.771c-22.638 0-42.386-14.45-48.647-36.124l-2.408-7.706c0 0.482 0 0.482 0 0zM512.001 614.653c-64.060 0-116.079-74.657-116.079-166.653 0-21.675 2.89-41.904 8.188-60.689 14.45 21.193 38.532 34.679 65.505 34.679h0.963c-15.413 14.45-25.528 37.087-25.528 62.615 0 43.831 29.863 79.473 66.468 79.473s66.468-35.643 66.468-79.473c0-25.046-10.115-47.684-25.528-62.615h0.963c26.973 0 51.056-13.486 65.505-34.679 5.298 18.785 8.188 39.496 8.188 60.689 0.963 91.996-51.056 166.653-115.116 166.653zM512.001 535.18c-20.711 0-37.569-22.638-37.569-50.574s16.858-50.574 37.569-50.574 37.569 22.638 37.569 50.574c0 27.936-16.858 50.574-37.569 50.574zM900.215 433.55h-143.533c-8.188 0-14.45 6.262-14.45 14.45s6.262 14.45 14.45 14.45h143.533c8.188 0 14.45-6.262 14.45-14.45s-6.743-14.45-14.45-14.45zM267.32 433.55h-143.533c-8.188 0-14.45 6.262-14.45 14.45s6.262 14.45 14.45 14.45h143.533c8.188 0 14.45-6.262 14.45-14.45s-6.262-14.45-14.45-14.45z" />
<glyph unicode="&#x651;" glyph-name="currency" d="M704 688c-16 0-32-1.6-48-3.2v67.2h-32v96h-624v-128h32v-64h-32v-128h32v-64h-32v-128h64v-64h-32v-96h-32v-128h624v11.2c25.6-6.4 52.8-11.2 80-11.2 176 0 320 144 320 320s-144 320-320 320zM32 816h560v-64h-560v64zM64 720h560v-43.2c-22.4-6.4-43.2-14.4-64-24v3.2h-496v64zM32 624h481.6c-24-17.6-46.4-40-64-64h-417.6v64zM64 528h363.2c-11.2-20.8-20.8-41.6-28.8-64h-334.4v64zM32 368v64h358.4c-4.8-20.8-6.4-41.6-6.4-64h-352zM96 336h289.6c1.6-22.4 6.4-43.2 12.8-64h-302.4v64zM64 240h347.2c9.6-22.4 22.4-44.8 38.4-64h-385.6v64zM32 80v64h443.2c25.6-25.6 56-48 89.6-64h-532.8zM704 80c-158.4 0-288 129.6-288 288s129.6 288 288 288 288-129.6 288-288-129.6-288-288-288zM704 592c-123.2 0-224-100.8-224-224s100.8-224 224-224 224 100.8 224 224-100.8 224-224 224zM704 176c-105.6 0-192 86.4-192 192s86.4 192 192 192 192-86.4 192-192-86.4-192-192-192z" />
<glyph unicode="&#x652;" glyph-name="email" d="M1024 699.482c0 21.919-8.701 41.663-22.421 56.722-0.167 0.335-0.335 0.669-0.502 1.004s-0.502 0.335-0.837 0.669c-15.728 16.397-37.814 26.771-62.243 26.771h-851.995c-24.596 0-46.682-10.374-62.41-26.771-0.167-0.167-0.502-0.335-0.837-0.669-0.167-0.335-0.335-0.669-0.502-1.004-13.553-15.059-22.254-34.803-22.254-56.722v-501.124c0-22.421 9.035-42.667 23.425-57.893 0.335-0.335 0.335-0.669 0.669-1.004 0.167-0.167 0.167-0.167 0.335-0.167 15.728-15.895 37.48-25.935 61.741-25.935h851.827c24.261 0 46.013 10.039 61.741 25.935 0.167 0.167 0.167 0.167 0.335 0.167 0.335 0.335 0.335 0.669 0.669 1.004 14.39 15.226 23.425 35.472 23.425 57.893l-0.167 501.124zM688.858 475.441l295.153 244.622c2.844-6.358 4.685-13.218 4.685-20.58v-501.124c0-6.693-1.339-12.884-3.681-18.74l-296.157 295.822zM937.997 749.511c7.362 0 14.39-1.673 20.748-4.518l-446.745-370.447-446.745 370.447c6.358 2.844 13.386 4.518 20.748 4.518h851.995zM39.32 179.618c-2.342 5.856-3.681 12.047-3.681 18.74v501.124c0 7.362 1.673 14.222 4.685 20.58l295.153-244.622-296.157-295.822zM86.003 148.329c-8.199 0-15.895 2.175-22.588 5.522l299.001 299.001 138.207-114.614c3.346-2.677 7.362-4.183 11.378-4.183s8.031 1.339 11.378 4.183l138.207 114.614 299.001-299.001c-6.86-3.346-14.557-5.522-22.756-5.522h-851.827z" />
<glyph unicode="&#x653;" glyph-name="stripe-typo" horiz-adv-x="2744" d="M1519.121 766.56c0 40.724-30.543 74.482-70.196 78.769-0.536 0-0.536 0.536-1.072 0.536-5.894 0-11.253 0-17.147 0-1.072-0.536-2.143-0.536-2.679-1.072-38.045-5.894-67.516-38.581-67.516-78.769 0-22.505 9.109-42.868 24.113-57.335 9.645-9.645 21.97-16.611 35.902-20.362 6.43-1.608 12.86-2.679 19.29-2.143v0c43.403 0.536 79.305 36.437 79.305 80.377zM654.267 436.479c-15.004 11.253-33.222 18.755-49.834 27.864-12.86 6.966-27.328 11.789-39.117 20.898-6.43 4.823-11.253 16.611-10.181 24.113 1.072 6.43 11.253 13.932 18.219 16.075 10.181 2.679 21.97 2.143 32.687 0.536 26.256-3.751 52.513-9.109 79.841-13.932 0 32.151-0.536 64.301 0 96.988 0 9.109-3.215 13.396-11.789 16.075-53.585 17.147-107.705 21.97-162.897 10.717-51.441-10.717-91.094-36.973-106.097-90.558-3.215-11.253-4.823-23.041-6.966-34.83 0-8.574 0-17.147 0-25.721 1.072-3.215 2.143-6.43 2.679-9.645 4.287-34.83 20.898-62.694 49.298-82.52 14.468-10.181 30.543-17.683 46.083-25.721 13.396-7.502 27.328-13.396 40.188-21.434 9.645-5.894 14.468-17.147 9.109-27.328-3.751-6.966-12.86-15.004-20.898-16.075-15.004-2.143-30.543-1.608-45.547 1.072-24.113 3.751-48.226 9.645-73.411 15.004 0-36.437-0.536-71.267 0.536-106.097 0-3.751 6.43-8.574 10.717-10.181 49.834-13.932 99.667-20.898 151.644-16.075 79.841 7.502 124.316 48.762 132.354 128.067 6.43 47.69-4.287 92.165-46.619 122.709zM936.121 342.706c0 58.407 0 116.814 0 175.221 0 4.823 0.536 9.109 1.072 15.004 21.434 0 41.26 0 61.622 0 6.966 33.758 13.932 66.445 20.898 100.739-28.4 0-55.728 0-84.128 0 0 45.011 0 87.879 0 132.354-42.868-10.181-84.128-20.898-125.388-30.007-10.181-2.143-13.396-7.502-15.004-17.147-5.358-28.4-11.253-56.8-17.147-86.271-19.826 0-38.045 0-56.8 0 0-34.294 0-66.981 0-100.739 19.29 0 37.509 0 56.8 0 0-6.43 0-11.253 0-16.611 0-71.267-0.536-142.535 0-213.802 0.536-60.55 27.328-100.739 76.626-112.527 55.192-13.396 109.848-1.608 163.969 8.038 0 38.045 0 74.482 0 111.992-18.755-2.143-35.902-4.823-53.049-5.894-19.826-1.072-26.792 5.358-29.471 25.185 0 4.823 0 9.645 0 14.468zM1321.93 620.81c0 10.181-3.751 13.932-13.396 16.611-49.298 13.396-78.769 1.608-107.705-44.475-5.894 10.181-11.789 19.826-16.611 30.543-3.751 8.038-9.109 10.717-17.683 10.717-33.758-0.536-68.052 0-101.811-0.536-3.751 0-6.966-0.536-10.181-1.072 0-147.357 0-293.643 0-439.929 52.513 0 103.954 0 157.003 0 0 5.894 0 11.253 0 16.075 0 85.735 0 171.47 0 257.206 0 32.151 4.287 37.509 36.973 41.796 8.038 1.072 16.075 1.608 24.113 1.072 15.54-1.608 31.079-3.751 48.762-5.894 0.536 39.117 0 78.233 0.536 117.886zM1516.977 632.599c-52.513 0-103.954 0-156.467 0 0-146.822 0-293.107 0-440.465 52.513 0 103.954 0 156.467 0 0 146.822 0 293.643 0 440.465zM1944.582 576.871c-13.396 27.864-33.758 49.298-64.301 57.871-47.154 12.86-92.165 8.574-132.89-20.362-3.751-2.679-7.502-5.358-13.396-9.109-11.789 30.543-36.437 30.007-62.158 27.864-3.751-0.536-7.502 0-11.253 0-24.649 0-49.298 0-76.090 0 0-6.966 0-11.789 0-17.147 0-189.689 0-379.378 0-568.532 0-4.823 0.536-9.645 0.536-14.468 52.513 0 105.561 0 158.074 0 0 52.513 0 105.026 0 156.467 23.577-2.143 45.547-6.43 68.052-6.43 76.090 0.536 122.173 35.902 144.678 108.777 1.072 3.215 2.143 6.43 2.679 9.645 15.54 58.943 15.004 118.422 9.645 178.436-2.679 33.758-9.109 66.445-23.577 96.988zM1805.798 330.918c-7.502-34.83-27.864-44.475-62.694-31.615 0 9.645 0 19.29 0 29.471 0 56.8 0.536 113.599 0 170.399 0 10.181 3.215 15.004 12.324 17.683 4.823 1.608 9.645 3.751 15.004 5.358 21.434 6.43 35.366-0.536 38.581-23.041 6.43-55.728 8.038-112.527-3.215-168.255zM2210.361 305.197c-28.936 4.287-41.796 24.113-37.509 55.192 69.66 0 139.856 0 214.874 0-3.751 47.69-4.823 93.237-10.717 138.248-5.358 39.117-20.898 75.554-50.905 103.418-36.973 34.294-81.984 41.26-129.675 39.117-92.701-4.287-147.893-45.547-170.399-128.067-18.219-66.981-18.219-135.569-0.536-203.085 17.147-64.837 58.407-106.097 125.388-119.493 59.479-11.789 118.958-9.109 177.901 5.358 33.758 8.574 33.758 8.574 33.758 43.403 0 26.792 0 53.049 0 80.913-14.468-2.679-27.328-4.823-39.653-6.966-37.509-6.43-75.018-13.932-112.527-8.038zM2176.067 518.464c1.072 6.966 4.823 13.932 9.109 19.29 14.468 16.611 40.724 12.324 45.011-9.109 5.358-26.256 6.43-53.585 9.109-81.448-25.721 0-46.619 0-70.196 0 2.679 24.113 4.287 47.69 6.966 71.267z" />
<glyph unicode="&#x660;" glyph-name="pa-speaker" d="M499.789 693.053c0 30.105-24.421 54.526-54.526 54.526s-54.526-24.421-54.526-54.526c0-30.105 24.421-54.526 54.526-54.526 30.105-0.211 54.526 24.211 54.526 54.526zM808.842 960h-593.684c-44 0-79.579-28.421-79.579-63.158v-869.684c0-34.947 35.579-63.158 79.789-63.158h34.947v-27.789h115.368v27.789h293.053v-27.789h115.368v27.789h34.947c44 0 79.789 28.421 79.789 63.158v869.684c-0.421 34.737-36 63.158-80 63.158zM512 76.211c-131.368 0-237.684 106.316-237.684 237.684 0 112.632 78.316 206.526 183.368 231.158-4.211-0.421-8.211-1.263-12.421-1.263-82.526 0-149.263 66.737-149.263 149.263 0 82.316 66.737 149.053 149.263 149.053 82.316 0 149.263-66.737 149.263-149.053 0-68.421-46.316-125.474-109.053-143.158 8.842 1.053 17.684 1.684 26.737 1.684 131.368 0 237.684-106.316 237.684-237.684-0.211-131.368-106.526-237.684-237.895-237.684zM512 384.421c-38.947 0-70.526-31.579-70.526-70.526s31.579-70.526 70.526-70.526 70.526 31.579 70.526 70.526-31.579 70.526-70.526 70.526z" />
<glyph unicode="&#x666;" glyph-name="sun" d="M307.296 448.963c1.445 113.189 93.441 204.704 205.185 203.74 113.189-0.963 204.222-93.441 203.74-205.185-0.963-113.189-92.96-204.222-204.222-203.74-114.152 0.963-206.149 93.441-204.704 205.185zM812.071 186.461c-0.963-14.931-7.706-26.973-22.156-34.679-14.45-7.225-29.381-6.743-41.422 3.853-19.266 16.376-37.087 33.716-53.464 53.464-13.005 14.931-10.596 38.051 3.372 51.537 13.968 13.968 37.087 16.376 51.537 3.372 19.266-16.376 36.606-34.679 53.464-53.464 6.743-6.262 8.67-14.45 8.67-24.083zM296.7 623.323c-11.078 0-21.193 4.335-28.899 12.041-14.931 14.45-29.381 28.899-43.349 43.349-16.376 17.34-16.376 41.422-0.963 57.317 14.931 15.413 39.496 15.413 56.354 0 15.413-14.45 30.344-29.381 45.276-45.276 12.523-13.005 14.931-27.936 8.188-44.312-7.706-14.931-20.23-22.638-36.606-23.119zM579.432 784.196c0-11.56 0.482-23.601 0-35.161-0.963-19.748-45.757-35.161-66.468-36.124-19.266-0.963-9.633 13.486-11.56 33.234-2.89 25.528-2.89 52.019 0 77.547 1.927 19.266 20.711 33.234 39.977 32.753 20.23-0.963 37.087-16.376 38.051-36.124 0.482-12.523 0-24.083 0-36.124zM175.323 408.023c-11.56 0-23.119-0.482-34.679 0-20.23 0.963-35.643 17.34-36.606 37.569s13.005 38.532 33.234 40.459c25.528 2.89 51.537 2.89 77.065 0 19.266-1.927 34.198-20.23 33.234-39.496-0.963-20.711-16.376-37.087-36.606-38.532-12.041-0.482-24.083 0-35.643 0zM551.496 111.804c0-11.56 0.482-23.119 0-34.679-0.963-20.711-17.34-36.124-38.051-37.087-19.266-0.963-38.051 13.486-39.977 33.716-2.408 25.046-2.408 51.056 0 76.102 1.927 20.23 20.711 34.679 41.422 33.234 20.23-0.963 36.124-16.858 37.087-37.087 0-11.56-0.482-23.119-0.482-34.198zM848.196 408.504c-12.041 0-23.601-0.482-35.643 0-20.23 0.963-35.643 17.34-36.606 37.569s13.005 38.532 33.234 40.459c25.528 2.89 51.537 2.89 77.065 0 19.266-1.927 33.716-20.711 33.234-39.496-0.963-20.711-16.376-37.087-37.087-38.532-10.596-0.482-22.156 0-34.198 0zM726.818 623.323c-15.895 0.963-27.936 7.706-35.161 22.156s-6.262 29.381 4.335 41.422c16.376 18.785 33.716 36.606 52.5 52.5 14.931 13.005 38.532 10.596 52.5-3.372 13.968-14.45 15.895-37.087 2.89-52.5-15.895-18.303-33.234-35.161-51.537-51.537-7.706-6.262-16.376-8.67-25.528-8.67zM336.196 232.7c0.482-11.078-4.335-21.193-12.041-29.381-14.931-14.931-29.381-29.863-44.312-44.312-17.34-16.376-41.422-15.895-56.835 0-14.931 15.413-14.931 39.496 0.963 56.354 14.931 15.895 30.826 31.308 47.202 46.239 12.523 11.078 26.973 13.005 42.386 6.262 14.45-6.262 22.156-18.785 22.638-35.161z" />
<glyph unicode="&#x667;" glyph-name="tent" d="M512.963 376.715c-5.78-4.817-6.262-11.078-8.188-16.858-27.936-78.992-56.354-158.465-83.808-237.456-3.853-11.078-8.67-14.931-20.711-14.931-97.294 0.482-194.589 0.482-291.883 0.482-4.817 0-12.041-0.963-13.968 1.445-3.853 4.817 2.89 9.633 5.298 13.968 128.602 207.594 257.204 415.669 386.77 622.781 7.225 11.56 7.225 19.748-0.482 30.344-13.005 18.303-23.601 38.532-36.124 56.835-6.743 9.633-1.445 13.005 5.298 17.34 7.225 4.335 12.523 10.115 19.266-1.445 11.078-20.23 24.083-39.496 37.087-60.689 12.041 19.748 23.119 37.087 33.716 54.427 5.298 8.67 8.188 17.821 22.638 8.67s7.225-14.931 1.927-23.119c-11.078-17.821-21.675-37.087-33.716-54.427-6.743-9.633-5.78-16.858 0.482-26.491 128.602-206.63 256.722-413.742 384.843-620.373 2.408-3.853 4.817-7.706 7.225-11.078 3.853-5.78 3.372-9.151-4.817-8.67-1.927 0-4.335 0-6.743 0-97.776 0-195.552 0.482-293.81-0.482-12.041 0-17.34 4.335-20.711 14.931-27.454 79.955-56.354 159.428-84.771 239.383-0.482 5.298-2.89 10.115-4.817 15.413z" />
<glyph unicode="&#xe600;" glyph-name="airplane" d="M768 320.032l-182.816 182.816 438.816 329.152-128 128-548.512-219.456-172.704 172.704c-49.792 49.792-119.296 61.696-154.496 26.496s-23.264-104.736 26.496-154.496l172.672-172.672-219.456-548.576 128-128 329.184 438.88 182.816-182.816v-255.968h128l64 192 192 64v128h-255.968z" />
<glyph unicode="&#xe601;" glyph-name="arrest" d="M851.792 487.131v66.554c0 16.599-13.531 30.128-30.13 30.128h-56.064v47.497c8.149 2.37 15.655 6.498 20.918 13.058 6.437 8.149 9.157 18.078 7.561 28.004l-5.554 34.503c-3.068 19.855-22.868 34.085-44.894 30.247-6.978-1.061-12.886-4.311-18.321-8.331l-36.807 22.923c0.055 0.182 0.18 0.354 0.18 0.537 2.714 10.045 1.653 20.5-2.957 29.483-4.729 9.22-12.759 15.772-22.45 18.313l-33.794 9.093c-19.202 5.083-40.409-7.977-45.974-28.713-0.535-1.888-0.18-3.84-0.408-5.79l-35.092-5.554c-9.128 18.848-31.699 28.123-49.775 19.855l-31.726-14.647c-17.631-8.149-24.928-29.538-17.631-48.74l-26.436-27.351-43.16 30.128c-13.558 9.511-32.469 6.144-41.951-7.442l-42.834-61.264c-31.398 4.258-63.275 1.348-93.155-8.233-0.891-0.27-1.782-0.535-2.666-0.815-2.331-0.78-4.62-1.673-6.924-2.537-81.773-29.237-140.548-107.262-140.548-198.959 0-64.612 29.204-122.466 75.018-161.284l37.792 60.793c-26.065 25.59-42.293 61.164-42.293 100.489 0 77.713 63.222 140.935 140.935 140.935s140.935-63.222 140.935-140.935-63.222-140.935-140.935-140.935c-18.227 0-35.602 3.592-51.608 9.918l-37.571-60.441c27.14-12.696 57.289-19.995 89.178-19.995 112.21 0 204.022 87.919 210.792 198.453 0.319 4.010 0.526 8.018 0.61 12.032 0.002 0.326 0.049 0.639 0.049 0.967 0 0.188-0.027 0.369-0.029 0.557 0.481 35.144-7.842 70.124-24.404 101.454l42.895 61.327c9.482 13.584 6.115 32.496-7.442 42.007l-45.138 31.554 21.352 22.151c6.795-5.554 15.010-9.038 23.749-9.038 5.081 0 10.019 1.061 14.655 3.195l31.754 14.647c11.907 5.554 18.649 17.25 20.001 30.128l34.802 5.491c0.473-1.008 0.537-2.124 0.999-3.131 4.901-8.387 12.587-14.412 21.627-16.779l33.794-9.093c2.949-0.772 5.962-1.243 8.974-1.243 9.454 0 18.203 4.073 25.055 10.455l35.211-21.926c-1.769-5.317-2.531-10.807-1.651-16.425l5.544-34.503c2.306-14.711 13.822-25.7 28.596-29.186v-46.907h-51.872c-16.544 0-30.13-13.531-30.13-30.128v-70.636c-44.083-23.439-78.823-62.030-97.458-108.777-10.402-24.586-16.265-51.56-16.265-80.017 0-78.889 44.083-146.862 108.8-181.969 2.040-1.157 4.092-2.281 6.175-3.373 1.282-0.641 2.574-1.251 3.871-1.866 23.007-11.45 48.331-18.874 75.096-21.287v70.978c-68.889 9.189-122.247 68.186-122.247 139.549 0 77.713 63.222 140.941 140.935 140.941s140.935-63.228 140.935-140.941c0-64.758-43.958-119.308-103.559-135.746v-72.196c98.796 17.723 174.070 104.116 174.070 207.94 0 84.21-49.598 156.865-121.008 190.851zM523.102 735.054l-31.734-14.655c-5.081-2.359-11.016-1.124-16.007 2.251l7.033 7.268c4.049 4.192 3.957 10.926-0.262 14.946-4.166 4.012-10.899 3.957-14.946-0.299l-0.627-0.645c0.971 5.308 3.521 9.982 8.331 12.225l31.699 14.655c1.952 0.889 4.073 1.362 6.289 1.362 4.954 0 9.273-2.777 12.876-6.615l-4.61-0.707c-6.089-0.944-10.254-6.67-9.273-12.759 0.852-5.554 5.581-9.456 11.016-9.456 0.563 0 1.153 0.063 1.743 0.182l5.581 0.889c-1.528-3.615-3.535-6.99-7.109-8.643zM668.834 763.994l-3.203 1.96c-5.2 3.303-12.052 1.651-15.366-3.602-3.24-5.2-1.651-12.050 3.549-15.301l4.491-2.777c-3.303-1.597-6.98-2.423-10.4-1.479l-33.794 9.038c-2.241 0.653-3.549 2.777-5.308 4.256l8.141 1.298c6.089 0.944 10.281 6.679 9.273 12.759-0.944 6.144-6.443 10.635-12.759 9.275l-8.974-1.415c3.131 7.088 9.095 12.341 16.009 12.341 1.307 0 2.603-0.117 3.846-0.471l33.733-9.038c4.256-1.18 7.797-4.139 9.929-8.331 1.307-2.544 0.653-5.618 0.834-8.514zM755.007 672.147c-5.851 0-10.57-4.729-10.57-10.582v-9.574c-4.602 2.423-8.149 6.081-8.921 11.045l-5.544 34.503c-0.066 0.59 0.535 1.18 0.535 1.769l2.714-1.653c1.896-1.18 3.901-1.769 5.906-1.769 3.719 0 7.332 1.952 9.456 5.319 3.303 5.2 1.653 12.050-3.547 15.301 0.645 0.182 0.999 0.825 1.651 0.944 1.19 0.182 2.433 0.299 3.604 0.299 9.454 0 17.25-5.906 18.547-14.002l5.554-34.503c0.645-4.311-0.537-8.739-3.486-12.405-1.307-1.597-3.666-1.888-5.319-3.013v7.741c0.002 5.851-4.727 10.58-10.58 10.58z" />
<glyph unicode="&#xe602;" glyph-name="arrow-down" d="M973.688 766.2l-463.142-654.836-462.988 654.836h926.13z" />
<glyph unicode="&#xe603;" glyph-name="arrow-next" d="M370.752 960l-57.44-57.44 422.112-422.112-422.112-422.080 57.44-57.472 479.552 479.552z" />
<glyph unicode="&#xe604;" glyph-name="arrow-up" d="M47.506 111.393l463.139 654.789 462.959-654.789h-926.098z" />
<glyph unicode="&#xe605;" glyph-name="artist" d="M592.837 704.473c-19.788 31.554-51.163 55.085-88.244 64.713v79.153c0 4.456-3.566 8.022-8.022 8.022h-57.76c-4.456 0-8.022-3.566-8.022-8.022v-79.153c-37.081-9.628-68.456-33.159-88.244-64.713-38.15-5.884-67.566-38.506-67.566-78.26v-556.384c0-43.854 35.654-79.51 79.51-79.51h226.404c43.854 0 79.51 35.654 79.51 79.51v556.206c0.178 39.932-29.235 72.557-67.566 78.438zM743.655 724.976l-142.973 71.666h83.964c5.347 0 9.628 4.278 9.628 9.628 0 5.347-4.278 9.628-9.628 9.628h-83.966l142.973 71.666c4.813 2.318 6.597 8.2 4.278 12.835-2.497 4.813-8.2 6.597-12.835 4.278l-179.341-89.848c-0.178-0.178-0.356-0.356-0.535-0.356-1.069-0.713-2.14-1.604-2.853-2.675-0.178-0.356-0.535-0.713-0.713-1.069-0.713-1.425-1.247-2.853-1.247-4.456s0.535-3.209 1.247-4.456c0.178-0.356 0.356-0.713 0.713-1.069 0.713-1.069 1.782-1.962 2.853-2.675 0.178-0.178 0.356-0.356 0.535-0.356l179.341-89.848c1.425-0.713 2.853-1.069 4.278-1.069 3.566 0 6.953 1.962 8.557 5.347 2.499 4.631 0.537 10.512-4.276 12.831z" />
<glyph unicode="&#xe606;" glyph-name="bin" d="M192-64h640l64 704h-768zM640 832v128h-256v-128h-320v-192l64 64h768l64-64v192h-320zM576 832h-128v64h128v-64z" />
<glyph unicode="&#xe607;" glyph-name="busker" d="M660.052 606.736c0-82.201-66.637-148.838-148.838-148.838s-148.838 66.637-148.838 148.838c0 82.201 66.637 148.838 148.838 148.838s148.838-66.637 148.838-148.838zM511.214 415.373c-144.833 0-298.174-171.311-298.174-316.142h596.349c0 144.83-153.344 316.142-298.174 316.142zM746.14 796.77c-39.604 0-74.996-17.945-98.566-46.117 43.373-33.143 71.526-85.236 71.526-143.913 0-21.537-4.143-42.029-11.071-61.202 12.042-3.736 24.842-5.751 38.113-5.751 70.963 0 128.489 57.528 128.489 128.492-0.002 70.963-57.528 128.492-128.492 128.492zM606.931 439.251c88.062-21.271 160.803-82.104 198.244-162.56h167.352c0 125.030-101.356 226.388-226.388 226.388-23.8 0-46.723-3.715-68.272-10.527-18.881-23.081-42.988-41.73-70.937-53.301zM277.858 796.77c39.604 0 74.996-17.945 98.566-46.117-43.373-33.143-71.526-85.236-71.526-143.913 0-21.537 4.143-42.029 11.071-61.202-12.042-3.736-24.842-5.751-38.113-5.751-70.963 0-128.489 57.528-128.489 128.492 0.002 70.963 57.528 128.492 128.492 128.492zM417.067 439.251c-88.062-21.271-160.803-82.104-198.244-162.56h-167.352c0 125.030 101.356 226.388 226.388 226.388 23.8 0 46.723-3.715 68.272-10.527 18.883-23.081 42.988-41.73 70.937-53.301z" />
<glyph unicode="&#xe608;" glyph-name="buy-music" d="M179.268 751.020l-120.652-145.611c-11.362-13.713-9.458-34.044 4.258-45.406l357.997-296.628c13.713-11.362 34.042-9.458 45.406 4.258l120.934 145.953-407.943 337.435zM637.266 524.542l-357.999 296.628c-13.711 11.364-34.042 9.456-45.404-4.256l-31.482-38.001 407.943-337.431 31.199 37.652c11.362 13.715 9.458 34.044-4.258 45.406zM972.8 620.653l-260.807 0.035v-280.474c-13.851 4.59-28.621 7.166-44.024 7.166-77.322 0-140.009-62.675-140.009-139.999 0-77.292 62.687-139.966 140.009-139.966 77.324 0 140.012 62.675 140.012 139.966 0 0.133-0.023 0.27-0.023 0.406h0.023v304.636c118.522 29.872 164.819 108.231 164.819 108.231z" />
<glyph unicode="&#xe609;" glyph-name="calendar" d="M109.714 9.143h164.571v164.571h-164.571v-164.571zM310.857 9.143h182.857v164.571h-182.857v-164.571zM109.714 210.286h164.571v182.857h-164.571v-182.857zM310.857 210.286h182.857v182.857h-182.857v-182.857zM109.714 429.714h164.571v164.571h-164.571v-164.571zM530.286 9.143h182.857v164.571h-182.857v-164.571zM310.857 429.714h182.857v164.571h-182.857v-164.571zM749.714 9.143h164.571v164.571h-164.571v-164.571zM530.286 210.286h182.857v182.857h-182.857v-182.857zM329.143 704v164.571q0 7.424-5.413 12.873t-12.873 5.413h-36.571q-7.424 0-12.873-5.413t-5.413-12.873v-164.571q0-7.424 5.413-12.873t12.873-5.413h36.571q7.424 0 12.873 5.413t5.413 12.873zM749.714 210.286h164.571v182.857h-164.571v-182.857zM530.286 429.714h182.857v164.571h-182.857v-164.571zM749.714 429.714h164.571v164.571h-164.571v-164.571zM768 704v164.571q0 7.424-5.413 12.873t-12.873 5.413h-36.571q-7.424 0-12.873-5.413t-5.413-12.873v-164.571q0-7.424 5.413-12.873t12.873-5.413h36.571q7.424 0 12.873 5.413t5.413 12.873zM987.429 740.571v-731.429q0-29.696-21.723-51.419t-51.419-21.723h-804.571q-29.696 0-51.419 21.723t-21.723 51.419v731.429q0 29.696 21.723 51.419t51.419 21.723h73.143v54.857q0 37.705 26.843 64.585t64.585 26.843h36.571q37.705 0 64.585-26.843t26.843-64.585v-54.857h219.429v54.857q0 37.705 26.843 64.585t64.585 26.843h36.571q37.705 0 64.585-26.843t26.843-64.585v-54.857h73.143q29.696 0 51.419-21.723t21.723-51.419z" />
<glyph unicode="&#xe60a;" glyph-name="camera" d="M921.195 680.195h-156.614v8.915c0 29.752-24.118 53.872-53.872 53.872h-397.422c-29.752 0-53.872-24.118-53.872-53.872v-8.915h-156.612c-29.756 0-53.872-24.118-53.872-53.872v-419.433c0-29.752 24.117-53.872 53.872-53.872h818.393c29.752 0 53.872 24.118 53.872 53.872v419.435c0 29.752-24.118 53.87-53.872 53.87zM215.733 548.149h-58.354c-16.077 0-29.114 13.034-29.114 29.111 0 16.079 13.037 29.113 29.114 29.113h58.354c16.077 0 29.111-13.034 29.111-29.113 0-16.077-13.034-29.111-29.111-29.111zM512 269.898c-98.363 0-178.102 79.739-178.102 178.104 0 98.363 79.739 178.104 178.102 178.104s178.104-79.739 178.104-178.104-79.743-178.104-178.104-178.104z" />
<glyph unicode="&#xe60b;" glyph-name="celebrity" d="M970.011 555.53l-227.254-225.020 56.527-314.782-284.25 146.596-281.885-151.032 51.591 315.605-230.748 221.438 316.105 48.495 139.282 287.879 143.792-285.678z" />
<glyph unicode="&#xe60c;" glyph-name="checked" d="M350.64 331.786l515.401 466.597 106.623-96.826-622.024-563.295-302.15 274.105 106.628 96.694 195.521-177.275z" />
<glyph unicode="&#xe60d;" glyph-name="circus" d="M512.993 826.694c0-189.302-465.487-413.466-465.487-413.466h-0.723c0-36.488 29.624-66.111 66.292-66.111s66.292 29.624 66.292 66.111c0-36.488 29.624-66.111 66.292-66.111 36.488 0 66.292 29.624 66.292 66.111 0-36.488 29.624-66.111 66.292-66.111s66.292 29.624 66.292 66.111c0-36.488 29.624-66.111 66.292-66.111s66.292 29.624 66.292 66.111c0-36.488 29.624-66.111 66.292-66.111s66.292 29.624 66.292 66.111c0-36.488 29.624-66.111 66.292-66.111s66.292 29.624 66.292 66.111c0-36.488 29.624-66.111 66.292-66.111s66.292 29.624 66.292 66.111c-0.723 0-461.875 224.164-461.875 413.466zM202.669 311.533h614.689v-155.524h-614.689v155.524z" />
<glyph unicode="&#xe60e;" glyph-name="clock" d="M658.752 210.752l-210.752 210.752v282.496h128v-229.504l173.248-173.248zM512 960c-282.784 0-512-229.216-512-512s229.216-512 512-512 512 229.216 512 512-229.216 512-512 512zM512 64c-212.064 0-384 171.936-384 384s171.936 384 384 384c212.064 0 384-171.936 384-384s-171.936-384-384-384z" />
<glyph unicode="&#xe60f;" glyph-name="clown" d="M958.070 610.839c0 59.97-48.59 108.74-108.56 108.74-5.6 0-10.838-0.903-16.076-1.626 0 0.542 0.181 1.084 0.181 1.626 0 55.273-44.977 100.070-100.070 100.070-12.102 0-23.482-2.529-34.139-6.322-13.728 54.551-62.86 95.193-121.746 95.193-34.862 0-66.111-14.089-88.871-36.849-22.76 22.76-54.009 36.849-88.69 36.849-56.538 0-104.586-37.571-120.301-89.051-54.37-1.084-98.264-45.339-98.264-99.889 0-0.542 0.181-1.084 0.181-1.626-5.238 0.723-10.477 1.626-16.076 1.626-59.97 0-108.74-48.59-108.74-108.74 0-26.914 10.115-51.119 26.372-70.085-16.257-17.883-26.372-41.365-26.372-67.195 0-55.273 44.977-100.070 100.070-100.070 0.361 0 0.723 0 1.084 0-0.361-6.683-1.084-13.367-1.084-20.050 0-193.818 156.969-350.786 350.786-350.786s350.606 156.969 350.606 350.786c0 6.683-0.542 13.367-1.084 20.050 0.181 0 0.181 0 0.361 0 55.273 0 100.070 44.797 100.070 100.070 0 26.011-10.115 49.312-26.372 67.195 16.618 18.966 26.733 43.352 26.733 70.085zM742.034 620.232c-0.181-1.806-0.542-3.613-0.542-5.419-1.806 1.626-3.432 3.251-5.238 4.877 1.987 0 3.793 0.361 5.78 0.542zM503.962 469.766c40.823 0 73.698-33.056 73.698-73.698 0-40.823-33.056-73.698-73.698-73.698s-73.698 33.056-73.698 73.698c0 40.642 33.056 73.698 73.698 73.698zM279.979 619.51c-1.987-1.626-3.974-3.613-5.961-5.238 0 1.987-0.361 3.974-0.542 5.961 2.168-0.181 4.335-0.542 6.503-0.723zM508.116 80.686c-133.306 0-241.504 108.379-241.504 241.504 0 23.121 18.786 41.726 41.726 41.726 23.121 0 41.726-18.786 41.726-41.726 0-87.245 70.988-158.053 158.233-158.053 87.064 0 158.053 70.808 158.053 158.053 0 23.121 18.786 41.726 41.726 41.726 23.121 0 41.726-18.786 41.726-41.726 0-133.125-108.379-241.504-241.685-241.504z" />
<glyph unicode="&#xe610;" glyph-name="dancer" d="M668.698 361.207v-50.396h304.725v91.219h-189.302c-103.682 0-115.424-40.823-115.424-40.823zM932.781 785.51c-35.404-43.352-89.051-70.808-149.382-70.808-60.15 0-113.978 27.637-149.202 70.808h-33.056c-256.858-223.622-395.222-262.096-444.895-268.057-1.987 0.181-3.974 0.542-5.961 0.542-4.877 0-9.393-0.723-14.089-1.445-0.903 0.181-1.445 0.181-1.445 0.181v-0.361c-49.674-7.587-87.968-50.216-87.968-102.237 0.181-52.203 39.016-95.012 89.232-102.057l-1.445-1.445h287.023c87.245 111.63 269.141 136.919 361.805 142.338l56.899 1.264h132.945v331.278h-40.461z" />
<glyph unicode="&#xe611;" glyph-name="donations" d="M847.571 345.899h-578.499c-21.51 0-38.949-17.437-38.949-38.945 0-21.51 17.439-38.945 38.949-38.945h59.765c-0.055-263.098-7.707-274.665 109.015-274.665h240.744c120.001 0 109.124 21.391 109.048 274.663h59.929c21.51 0 38.949 17.437 38.949 38.945-0.002 21.51-17.441 38.947-38.951 38.947zM713.683 701.893c-0.074-1.178-0.242-2.294-0.502-3.351s-0.731-2.386-1.407-3.985l-1.337-3.172c-1.303-2.994-2.034-5.335-2.198-7.025-0.266-2.849 0.614-5.288 2.646-7.307 1.79-1.825 3.469-2.56 5.026-2.21s2.879 1.358 3.965 3.021c1.72 2.634 2.642 5.736 2.759 9.294s-1.554 7.164-5.016 10.815l-3.936 3.92zM687.741 631.933c2.226 3.408 2.789 7.148 1.688 11.221s-3.545 7.997-7.33 11.776c-3.105 3.131-6.394 5.075-9.865 5.829s-6.414-0.717-8.827-4.411c-2.9-4.44-3.078-9.314-0.53-14.612 1.374-2.779 3.537-5.663 6.49-8.651 4.694-4.702 8.931-6.568 12.71-5.603 2.241 0.618 4.129 2.101 5.665 4.452zM616.833 553.576c-0.074-1.178-0.242-2.294-0.502-3.351s-0.731-2.386-1.407-3.985l-1.337-3.172c-1.303-2.994-2.034-5.335-2.198-7.025-0.266-2.849 0.614-5.288 2.646-7.307 1.79-1.825 3.469-2.56 5.026-2.208 1.556 0.35 2.879 1.358 3.965 3.021 1.72 2.634 2.642 5.736 2.759 9.294s-1.554 7.164-5.016 10.815l-3.936 3.918zM568.855 524.698c-2.826 2.869-5.415 4.039-7.764 3.506s-4.542-2.355-6.582-5.48l-8.055-12.335 16.071-16.134 8.055 12.335c2.040 3.125 2.974 6.212 2.802 9.267s-1.681 6.003-4.526 8.841zM858.049 724.148l-187.439 122.397c-12.153 7.936-28.439 4.518-36.375-7.635l-207.172-317.262c-7.936-12.153-4.518-28.439 7.635-36.375l187.439-122.397c12.153-7.936 28.439-4.518 36.375 7.635l207.174 317.262c7.934 12.153 4.516 28.439-7.637 36.375zM582.973 451.967l-54.567 54.821 18.018 27.593c4.153 6.361 8.868 10.013 14.148 10.963 5.28 0.948 10.871-1.532 16.785-7.436 6.431-6.486 9.742-12.964 9.937-19.425s-2.001-13.203-6.584-20.222l-8.784-13.453 19.636-19.687-8.589-13.152zM637.479 535.435c-1.057 0.446-1.993 0.952-2.806 1.526s-1.702 1.276-2.669 2.109c0.467-3.291 0.541-6.588 0.223-9.894-0.426-3.971-1.726-7.621-3.897-10.942-2.771-4.241-6.099-6.697-9.988-7.363s-7.746 0.92-11.571 4.766c-4.954 4.995-7.094 10.824-6.416 17.494 0.373 3.637 1.851 8.092 4.428 13.355l2.263 4.592c1.249 2.537 2.001 4.475 2.265 5.816 0.489 2.378 0.059 4.254-1.292 5.626-1.659 1.653-3.236 2.132-4.733 1.436s-3.088-2.337-4.772-4.915c-1.888-2.892-2.615-5.569-2.173-8.022 0.367-1.753 1.231-3.561 2.587-5.429l-7.719-11.819c-3.348 3.824-5.499 7.883-6.451 12.184-1.432 6.82 0.426 14.172 5.571 22.049 3.348 5.128 7.199 8.804 11.555 11.031s8.96 0.893 13.82-3.998l18.487-18.631c1.284-1.286 2.865-2.808 4.741-4.567 1.438-1.307 2.529-2.007 3.281-2.111s1.546 0.082 2.386 0.557l1.581-1.522-8.7-13.326zM671.65 546.361c-0.711-1.087-1.288-1.96-1.733-2.607s-1.13-1.591-2.058-2.824l-8.452 8.462 1.096 1.491c0.823 1.135 1.53 2.31 2.116 3.523s0.903 2.415 0.948 3.611c0.053 1.149-0.381 2.701-1.311 4.657s-1.587 3.017-1.966 3.185l-53.344 25.147 8.897 13.623 36.436-19.685-23.441 39.584 8.503 13.023 29.178-55.96c5.626-10.785 8.774-18.002 9.439-21.643s-0.772-8.169-4.307-13.586zM696.846 586.076l-56.22 56.513 7.662 11.733 5.966-5.98c-0.893 3.078-1.356 5.87-1.391 8.387-0.033 4.516 1.176 8.655 3.627 12.407 3.572 5.472 8.339 8.36 14.297 8.657s12.306-2.935 19.042-9.708c7.109-7.137 11.319-14.43 12.624-21.883 1.303-7.453 0.049-14.103-3.768-19.948-2.433-3.725-5.253-6.011-8.462-6.857-1.782-0.473-3.938-0.494-6.478-0.061l21.017-21.142-7.916-12.118zM734.329 683.751c-1.057 0.446-1.993 0.952-2.806 1.526s-1.702 1.276-2.669 2.109c0.467-3.291 0.541-6.588 0.223-9.894-0.426-3.971-1.726-7.621-3.897-10.942-2.771-4.241-6.099-6.697-9.988-7.363s-7.746 0.92-11.571 4.766c-4.954 4.995-7.094 10.824-6.416 17.494 0.373 3.637 1.851 8.092 4.43 13.355l2.263 4.592c1.249 2.537 2.001 4.475 2.265 5.816 0.489 2.378 0.059 4.254-1.292 5.626-1.659 1.653-3.236 2.132-4.733 1.436s-3.088-2.337-4.772-4.915c-1.888-2.892-2.615-5.569-2.173-8.022 0.367-1.753 1.231-3.561 2.587-5.429l-7.719-11.819c-3.348 3.824-5.499 7.883-6.451 12.184-1.432 6.82 0.426 14.172 5.571 22.049 3.348 5.128 7.199 8.804 11.555 11.031s8.96 0.893 13.82-3.998l18.487-18.631c1.284-1.286 2.865-2.808 4.741-4.567 1.438-1.307 2.529-2.007 3.281-2.111s1.546 0.082 2.386 0.557l1.581-1.522-8.702-13.326zM748.526 705.491l-54.567 54.821 7.999 12.249 54.567-54.821-7.999-12.249zM216.24 855.446l-74.215-89.571c-6.963-8.405-5.796-20.863 2.609-27.828l219.408-181.797c8.405-6.963 20.863-5.796 27.828 2.609l74.215 89.569-249.846 207.018zM496.667 716.313l-219.408 181.797c-8.405 6.963-20.863 5.796-27.828-2.609l-19.024-22.96 249.846-207.016 19.024 22.96c6.963 8.407 5.796 20.865-2.609 27.828z" />
<glyph unicode="&#xe612;" glyph-name="facebook" d="M672 768c-88.352 0-160-71.648-160-160v-96h-128v-128h128v-448h128v448h144l32 128h-176v96c0 17.664 14.336 32 32 32h160v128h-160z" />
<glyph unicode="&#xe613;" glyph-name="fan-make" d="M846.121 615.318c0-89.679-72.699-162.378-162.378-162.378s-162.378 72.699-162.378 162.378c0 89.679 72.699 162.378 162.378 162.378s162.378-72.699 162.378-162.378zM683.741 406.546c-158.005 0-286.093-128.088-286.093-286.093h572.185c0.002 158.005-128.086 286.093-286.091 286.093zM461.206 590.629c-18.713 52.838-74.77 83.96-130.396 70.4-44.587-10.869-76.192-47.344-83.032-89.977-25.692 34.703-70.537 52.541-115.12 41.673-55.632-13.562-91.081-66.988-83.374-122.511 0.512-3.699 1.221-7.412 2.124-11.121 31.822-130.542 207.049-153.1 274.582-228.878v0c25.086 98.351 170.273 199.016 138.449 329.562-0.903 3.711-1.982 7.334-3.232 10.852z" />
<glyph unicode="&#xe614;" glyph-name="fan" d="M971 663.896c-12.27 120.746-114.229 214.956-238.199 214.956-99.365 0-184.553-60.52-220.801-146.694-36.248 86.174-121.436 146.694-220.793 146.694-123.978 0-225.948-94.21-238.207-214.956-0.819-8.045-1.233-16.218-1.233-24.484 0-290.922 357.030-428.229 460.233-622.262v0c103.203 194.025 460.233 331.332 460.233 622.262 0.002 8.264-0.414 16.439-1.233 24.484z" />
<glyph unicode="&#xe615;" glyph-name="freakshow" d="M890.333 539.851c0 207.907-168.529 376.617-376.617 376.617-207.907 0-376.436-168.71-376.436-376.617 0-19.328 1.806-37.21 4.696-54.551h-0.723c0 0 0.723-2.348 1.806-6.683 3.793-20.231 9.393-39.016 16.618-56.538 40.823-133.306 144.144-431.709 248.73-431.709 7.225 0 14.089 0 20.953 0 0 0 49.674 0 169.071 0 6.864 0 13.728 0 20.953 0 104.586 0 207.726 298.403 248.73 431.709 7.406 17.521 12.825 36.307 16.618 56.538 1.264 4.155 1.806 6.683 1.806 6.683h-0.723c2.529 17.341 4.516 35.223 4.516 54.551zM304.545 373.49c-51.841 36.307-80.562 93.386-82.91 152.092 56.176 17.883 119.397 10.657 171.239-25.65 52.022-36.307 80.562-93.386 82.91-152.092-55.815-17.883-119.217-10.657-171.239 25.65zM737.518 373.49c-52.022-36.307-115.243-43.532-171.419-25.65 2.529 58.705 31.069 115.785 83.090 152.092 51.841 36.307 115.243 43.713 171.239 25.65-2.348-58.705-30.888-115.785-82.91-152.092z" />
<glyph unicode="&#xe616;" glyph-name="gigs" d="M998.252 270.849l-86.455 501.704c-4.090 23.595-19.833 36.18-45.002 31.909l-91.258-15.854c0.089-0.022 0.401-0.913 0.625-2.601 6.448-36.955-20.458-71.288-59.684-78.049-39.357-6.758-76.046 16.032-82.449 53.032-0.267 1.624-0.356 3.158-0.267 3.202l-577.085-99.503c-25.106-4.292-34.933-21.279-30.886-44.96l86.431-501.64c4.093-23.657 18.035-30.818 43.207-26.462l576.794 99.486c-4.715 27.26 20.37 72.357 59.591 79.067 39.265 6.718 77.914-27.347 82.671-54.564l91.077 15.743c25.169 4.36 36.689 15.875 32.688 39.492zM577.461 241.808l-152.67 66.931-120.521-117.406 18.167 166.321-150.668 77.917 165.547 34.599 25.792 166.878 85.697-146.291 165.079 26.549-110.957-126.299 74.534-149.199zM667.031 569.473c-6.402 36.979 20.366 72.467 59.589 79.228 39.268 6.782 76.314-17.722 82.717-54.701 6.402-36.998-20.366-72.489-59.635-79.225-39.357-6.758-76.357 17.766-82.671 54.699zM783.143 320.481c-39.268-6.761-76.271 17.788-82.674 54.699-6.36 37.022 20.37 72.464 59.637 79.225 39.265 6.782 76.357-17.699 82.629-54.677 6.399-37.001-20.324-72.489-59.594-79.246z" />
<glyph unicode="&#xe617;" glyph-name="inbox" d="M816.686 748.978h-616.698l-154.173-205.566v-390.575c0-11.347 9.21-20.557 20.557-20.557h883.931c11.358 0 20.557 9.21 20.557 20.557v390.575l-154.173 205.566zM225.685 697.585h565.307l115.631-154.173h-295.503c0-56.757-46.015-102.783-102.783-102.783-56.757 0-102.783 46.026-102.783 102.783h-295.499l115.631 154.173z" />
<glyph unicode="&#xe618;" glyph-name="instagram" d="M854.016 960h-684c-93.504 0-170.016-76.512-170.016-170.016v-684c0-93.504 76.512-170.016 170.016-170.016h684c93.504 0 170.016 76.512 170.016 170.016v684c0 93.504-76.512 170.016-170.016 170.016zM327.808 512h368.416c6.976-20.064 10.784-41.6 10.784-64 0-107.52-87.488-195.008-195.008-195.008s-195.008 87.488-195.008 195.008c0 22.4 3.808 43.936 10.816 64zM896 511.936v-383.936c0-35.2-28.8-64-64-64h-640c-35.2 0-64 28.8-64 64v384h100.096c-4.64-20.608-7.104-42.016-7.104-64 0-160.448 130.528-291.008 291.008-291.008s291.008 130.528 291.008 291.008c0 21.984-2.464 43.392-7.104 64l100.096-0.064zM896 736c0-17.6-14.4-32-32-32h-64c-17.6 0-32 14.4-32 32v64c0 17.6 14.4 32 32 32h64c17.6 0 32-14.4 32-32v-64z" />
<glyph unicode="&#xe619;" glyph-name="juggler" d="M960.779 268.001c-12.283 47.506-32.333 91.038-58.344 130.055h0.181c-0.542 0.903-1.264 1.626-1.806 2.529-4.516 6.864-9.393 13.547-14.27 20.050-82.729 118.133-139.267 238.795-139.448 239.337l-8.309 32.333 59.428 50.577 13.367-15.715 33.778 28.72-55.454 65.208-33.778-28.72 18.244-21.495-4.877 5.78-42.99-36.668-31.791 122.468 18.966 4.155-10.657 41.184-78.936-17.341 10.657-41.184 26.011 5.78-6.864-1.626 37.391-143.602-87.787-74.601c0 0-121.023-68.821-262.458-118.314-7.406-2.348-14.812-4.696-22.037-7.406-1.264-0.361-2.529-0.903-3.793-1.264l0.181-0.181c-45.158-17.16-88.329-42.087-127.345-75.143-72.794-61.957-120.12-142.88-140.893-229.221l69.543-81.826c88.69 6.503 175.935 40.1 248.91 102.057 38.836 33.056 70.446 71.711 94.651 113.617l0.181-0.181c0.542 0.903 0.903 1.806 1.445 2.709 4.155 7.406 8.128 14.812 11.922 22.398 71.169 130.777 158.053 238.253 158.414 238.795l71.349 60.692 2.89-11.199c0 0 9.032-132.222-7.045-272.934-1.084-7.225-1.987-14.451-2.709-21.856-0.181-1.264-0.361-2.529-0.542-3.793h0.181c-3.974-45.519-0.361-92.845 11.922-140.351 23.121-88.69 72.975-164.375 138.544-220.37l98.986 21.856c30.707 77.672 38.113 166 14.992 254.69z" />
<glyph unicode="&#xe61a;" glyph-name="magician" d="M896.909 467.863h-769.818c-28.623 0-51.829-23.203-51.829-51.824s23.206-51.824 51.829-51.824h79.53c-0.072-350.107-10.256-365.499 145.068-365.499h320.362c159.688 0 145.213 28.466 145.112 365.499h79.746c28.623 0 51.829 23.203 51.829 51.824s-23.206 51.824-51.829 51.824zM693.5 683.551c103.368 126.583 78.059 213.166 78.059 213.166l-13.003-2.352c-105.835-18.987-148.397-139.084-154.598-158.113-36.282 12.376-69.709 15.705-88.111 15.705-33.249 0-64.901-6.708-93.81-18.678-63.532 152.606-164.516 164.007-164.516 164.007l-3.329-12.862c-24.787-98.571 60.18-188.819 82.412-210.403-25.029-26.761-44.243-59.027-55.352-94.906-7.033-22.962-10.864-57.597-10.864-82.831h490.788c0 24.18-2.399 56.381-6.743 76.098-10.769 49.012-33.352 84.916-60.935 111.169zM410.857 566.345c-13.966 0-25.285 11.321-25.285 25.289 0 13.966 11.32 25.289 25.285 25.289s25.291-11.321 25.291-25.289c0-13.967-11.325-25.289-25.291-25.289zM616.432 566.345c-13.966 0-25.285 11.321-25.285 25.289 0 13.966 11.32 25.289 25.285 25.289s25.291-11.321 25.291-25.289c0-13.967-11.323-25.289-25.291-25.289z" />
<glyph unicode="&#xe61b;" glyph-name="mail" d="M511.995 446.253l461.594 323.118c-6.125 36.468-37.636 64.332-75.834 64.332h-771.431c-38.351 0-69.603-27.996-75.572-64.574l461.243-322.876zM511.995 381.472l-462.524 323.794-0.352-565.899c0-42.524 34.546-77.070 77.205-77.070h771.431c42.578 0 77.127 34.546 77.127 77.070v566.15l-462.887-324.045z" />
<glyph unicode="&#xe61c;" glyph-name="map" d="M512.005 920.995c-172.902 0-313.074-140.172-313.074-313.065 0-3.706 0.11-7.478 0.278-11.285 1.174-32.888 7.377-64.471 17.923-94.021 66.79-219.542 294.874-505.942 294.874-505.942s228.053 286.371 294.854 505.913c10.565 29.55 16.758 61.162 17.923 94.050 0.184 3.808 0.287 7.57 0.287 11.285 0.007 172.893-140.164 313.065-313.067 313.065zM512.005 454.596c-84.676 0-153.335 68.658-153.335 153.335 0 84.667 68.658 153.325 153.335 153.325 84.686 0 153.335-68.658 153.335-153.325-0.002-84.677-68.651-153.335-153.335-153.335z" />
<glyph unicode="&#xe61d;" glyph-name="money" d="M428.749 559.677c0-38.965 30.575-56.353 70.14-70.138v124.69c-43.166-4.198-70.14-23.382-70.14-54.553zM535.454 426.592v-136.679c47.358 5.396 76.134 28.774 76.134 63.543 0 41.966-33.571 59.351-76.134 73.136zM508.183 909.875c-254.493 0-460.8-206.307-460.8-460.8s206.307-460.8 460.8-460.8c254.493 0 460.8 206.307 460.8 460.8s-206.307 460.8-460.8 460.8zM535.454 241.957v-79.729h-36.563v79.129c-56.355 3.596-110.303 28.774-146.872 63.543l21.584 43.164c34.767-34.169 81.527-55.153 125.29-58.749v148.67c-60.551 17.983-122.896 40.163-122.896 117.496 0 59.947 48.558 100.712 122.896 107.307v73.134h36.563v-72.538c43.764-2.396 87.527-17.383 118.698-38.365l-20.384-44.96c-31.775 20.984-67.742 31.773-98.316 34.771v-136.681c62.349-19.184 129.487-41.363 128.891-122.29-0.002-64.143-51.556-107.307-128.891-113.902z" />
<glyph unicode="&#xe61e;" glyph-name="musician" d="M892.862 919.9h-436.767v-469.461c-23.121 7.767-47.867 11.922-73.698 11.922-129.513 0-234.46-104.947-234.46-234.46 0-129.332 104.947-234.279 234.46-234.279s234.46 104.947 234.46 234.279c0 0.181 0 0.361 0 0.723v0 509.923c198.514 50.035 276.005 181.354 276.005 181.354z" />
<glyph unicode="&#xe61f;" glyph-name="musicsettings" d="M712.23 596.208c0.181-0.723 0.542-1.445 0.723-2.348 10.115 2.89 4.516 2.89-0.723 2.348zM712.953 593.86c-9.754 0.361-5.419 1.626-0.723 2.348-24.927 98.986-113.437 169.071-217.3 169.071-100.070 0-188.76-67.917-216.035-163.291-2.529 0-4.877 0.181-7.406 0.181-100.070 0-224.706-100.792-224.706-224.525 0-123.913 132.764-224.706 224.706-224.706h501.252c82.729 0 202.669 78.755 202.669 202.669 0 123.733-108.921 231.57-262.458 238.253zM644.674 473.74h-0.181l-0.542-235.363h-0.361c0.181-0.903 0.542-1.806 0.542-2.89 0.542-29.262-35.404-52.925-72.433-52.925s-67.014 23.843-67.195 52.925c-0.181 29.082 29.443 52.744 66.292 52.744 8.49 0 16.618-1.445 24.566-3.613l-0.542 182.438-172.142-23.663v-231.931h-0.723c0.181-1.264 0.723-2.348 0.723-3.793-0.181-29.443-48.59-53.286-85.619-53.286s-66.834 23.843-66.292 53.286c0.361 29.262 35.584 52.925 72.253 52.925 7.948 0 16.437-1.264 24.747-3.251l-1.084 226.151h0.542l-0.181 65.75 278.173 38.113-0.542-113.617z" />
<glyph unicode="&#xe620;" glyph-name="others" d="M601.322 278.116h-240.782v23.663c0 40.281 4.696 72.794 13.909 97.902s23.121 48.048 41.545 68.64c18.424 20.773 59.608 57.26 123.913 109.463 34.32 27.456 51.299 52.383 51.299 75.323 0 22.76-6.864 40.461-20.592 53.106s-34.501 18.966-62.499 18.966c-29.985 0-54.731-9.754-74.42-29.262s-32.152-53.467-37.752-102.057l-245.839 30.165c8.49 88.69 41.365 160.22 98.625 214.229 57.26 54.189 145.047 81.104 263.361 81.104 92.122 0 166.542-18.786 223.080-56.538 76.949-50.938 115.424-119.036 115.424-204.114 0-35.223-9.935-69.362-29.804-102.057s-60.512-72.794-121.746-120.12c-42.629-33.236-69.543-59.789-80.742-80.020-11.38-19.869-16.979-46.061-16.979-78.394zM352.231 215.256h257.942v-223.261h-257.942v223.261z" />
<glyph unicode="&#xe621;" glyph-name="pay-paypal" d="M829.075 398.109h-650.727c-24.195 0-43.811-19.614-43.811-43.807s19.616-43.807 43.811-43.807h67.226c-0.061-295.946-8.669-308.959 122.626-308.959h270.803c134.984 0 122.749 24.062 122.663 308.957h67.41c24.195 0 43.811 19.614 43.811 43.807s-19.616 43.809-43.811 43.809zM734.966 713.478c-0.762-1.087-1.577-2.060-2.447-2.922-0.868-0.86-2.101-1.862-3.688-3l-3.144-2.263c-3.004-2.109-5.081-3.928-6.228-5.456-1.925-2.578-2.511-5.435-1.745-8.567 0.649-2.802 1.829-4.491 3.529-5.067s3.559-0.385 5.577 0.573c3.197 1.52 5.9 3.957 8.1 7.303s2.71 7.786 1.53 13.322l-1.483 6.076zM886.591 650.181l-108.141 227.408c-7.012 14.746-24.65 21.015-39.393 14.002l-384.918-183.042c-14.746-7.012-21.015-24.65-14.002-39.393l108.141-227.41c7.012-14.746 24.65-21.015 39.393-14.002l384.918 183.042c14.746 7.012 21.015 24.65 14.002 39.395zM506.087 611.543c-3.6-6.316-9.665-11.502-18.18-15.55l-16.321-7.762 7.301-30.413-15.956-7.588-20.228 84.621 33.477 15.919c7.717 3.67 14.385 4.411 20.009 2.226s9.538-7.846 11.751-16.982c2.367-9.996 1.747-18.156-1.853-24.472zM564.201 598.387c-0.754 1.049-1.354 2.083-1.798 3.109-0.442 1.026-0.885 2.222-1.323 3.59-1.483-3.432-3.344-6.642-5.589-9.626-2.736-3.561-6.128-6.302-10.158-8.219-5.147-2.447-9.781-2.851-13.906-1.21s-6.896 5.425-8.311 11.36c-1.827 7.698-0.461 14.549 4.1 20.556 2.49 3.273 6.521 6.683 12.083 10.222l4.864 3.080c2.687 1.704 4.545 3.121 5.585 4.254 1.864 1.995 2.55 4.049 2.058 6.158-0.623 2.558-1.855 3.944-3.701 4.153s-4.334-0.43-7.463-1.919c-3.51-1.669-5.777-3.811-6.791-6.427-0.676-1.898-0.907-4.141-0.7-6.728l-14.34-6.82c-0.973 5.634-0.655 10.791 0.952 15.477 2.626 7.387 8.72 13.353 18.278 17.9 6.222 2.957 12.073 4.229 17.56 3.811s9.124-4.397 10.922-11.942l6.818-28.725c0.479-1.989 1.104-4.377 1.872-7.166 0.612-2.097 1.251-3.41 1.911-3.951s1.532-0.827 2.617-0.866l0.625-2.388-16.165-7.684zM619.143 625.664c-0.924-13.652-2.136-22.426-3.631-26.311s-5.532-7.393-12.102-10.519c-1.319-0.627-2.386-1.124-3.193-1.487s-2.019-0.864-3.633-1.503l-3.15 13.079 1.927 0.788c1.456 0.606 2.824 1.321 4.098 2.14 1.272 0.819 2.281 1.788 3.027 2.91 0.725 1.071 1.219 2.816 1.473 5.239s0.246 3.826-0.020 4.211l-36.456 55.423 16.529 7.86 23.429-40.264 0.713 51.743 15.8 7.514-4.811-70.824zM691.53 666.608c-3.119-7.92-8.223-13.564-15.315-16.937-4.52-2.15-8.567-2.689-12.145-1.62-1.987 0.59-4.069 1.837-6.255 3.74l7.774-32.618-14.705-6.992-20.824 87.216 14.236 6.769 2.22-9.239c0.948 3.478 2.14 6.431 3.584 8.866 2.615 4.354 6.203 7.619 10.756 9.783 6.638 3.156 12.909 3.133 18.801-0.074s10.090-10.035 12.587-20.484c2.64-11.020 2.404-20.49-0.715-28.41zM744.145 683.958c-0.754 1.049-1.354 2.083-1.798 3.109-0.442 1.026-0.885 2.224-1.323 3.59-1.483-3.432-3.344-6.642-5.589-9.626-2.736-3.561-6.128-6.302-10.158-8.219-5.147-2.447-9.781-2.851-13.906-1.21s-6.896 5.425-8.311 11.36c-1.827 7.698-0.461 14.549 4.1 20.556 2.49 3.273 6.521 6.683 12.083 10.222l4.864 3.080c2.687 1.704 4.545 3.121 5.585 4.254 1.864 1.995 2.55 4.049 2.058 6.158-0.623 2.558-1.855 3.944-3.701 4.153s-4.334-0.43-7.463-1.919c-3.51-1.669-5.777-3.811-6.791-6.427-0.676-1.898-0.909-4.141-0.7-6.728l-14.34-6.82c-0.973 5.634-0.655 10.791 0.952 15.477 2.626 7.387 8.72 13.353 18.278 17.9 6.22 2.957 12.073 4.229 17.56 3.811s9.124-4.397 10.922-11.942l6.818-28.725c0.479-1.989 1.104-4.377 1.874-7.166 0.612-2.097 1.251-3.41 1.911-3.951s1.532-0.827 2.617-0.864l0.625-2.388-16.167-7.686zM770.521 696.5l-20.228 84.621 14.86 7.068 20.228-84.621-14.86-7.068zM555.022 627.909c-0.762-1.087-1.577-2.060-2.447-2.922-0.868-0.86-2.101-1.862-3.688-3l-3.144-2.263c-3.004-2.109-5.081-3.928-6.228-5.456-1.925-2.578-2.511-5.435-1.745-8.567 0.649-2.802 1.829-4.491 3.529-5.067s3.559-0.385 5.577 0.573c3.197 1.52 5.9 3.957 8.1 7.303 2.2 3.348 2.71 7.789 1.53 13.322l-1.483 6.076zM671.054 698.302c-2.892 2.759-6.576 3.074-11.061 0.942-5.386-2.562-8.415-7.135-9.079-13.715-0.311-3.473 0.074-7.51 1.155-12.11 1.749-7.266 4.721-11.543 8.915-12.831 2.517-0.721 5.198-0.406 8.051 0.952 4.135 1.966 6.869 5.226 8.2 9.781s1.288 9.755-0.131 15.602c-1.143 4.825-3.158 8.62-6.050 11.379zM486.636 636.244c-2.566 0.866-5.741 0.403-9.531-1.401l-14.965-7.117 5.964-24.912 14.965 7.117c3.791 1.802 6.498 4.219 8.124 7.252s1.907 6.746 0.84 11.141c-1.030 4.411-2.828 7.053-5.396 7.92z" />
<glyph unicode="&#xe622;" glyph-name="paypal" d="M749.056 435.962l-7.234-1.317c-6.871-1.167-11.913-2.593-15.129-4.276-5.407-2.851-8.735-7.274-9.98-13.267-1.174-5.333-0.526-9.193 1.921-11.567s5.79-3.564 10.037-3.564c6.715 0 13.337 1.974 19.837 5.921 6.509 3.946 10.996 11.145 13.486 21.598l2.41 11.622c-2.191-1.243-4.381-2.247-6.572-3.015-2.198-0.766-5.122-1.479-8.778-2.136zM370.704 435.962l-7.234-1.317c-6.877-1.167-11.921-2.593-15.129-4.276-5.407-2.851-8.741-7.274-9.98-13.267-1.174-5.333-0.526-9.193 1.921-11.567s5.79-3.564 10.029-3.564c6.722 0 13.345 1.974 19.845 5.921s10.996 11.145 13.486 21.598l2.41 11.622c-2.191-1.243-4.381-2.247-6.58-3.015-2.189-0.766-5.112-1.479-8.77-2.136zM624.239 477.843c-11.332 0-20.251-5.372-26.751-16.118-3.371-5.702-5.997-12.937-7.895-21.709-2.931-13.885-1.317-23.644 4.823-29.274 3.727-3.289 8.585-4.934 14.582-4.934 8.692 0 16.040 3.361 22.036 10.086s10.164 15.677 12.497 26.862c1.978 9.21 1.614 17.361-1.096 24.449-2.705 7.092-8.772 10.637-18.196 10.637zM258.093 516.547h-31.461l-10.086-47.583h31.461c7.973 0 14.582 1.935 19.845 5.81s8.778 10.017 10.527 18.42c1.835 8.403 0.897 14.402-2.796 17.981-3.69 3.58-9.515 5.372-17.49 5.372zM916.664 743.211h-809.329c-30.999 0-56.136-25.131-56.136-56.134v-478.151c0-31.003 25.137-56.136 56.136-56.136h809.329c31.005 0 56.136 25.133 56.136 56.136v478.149c0 31.003-25.129 56.136-56.136 56.136zM288.793 452.956c-11.323-7.893-25.948-11.842-43.852-11.842h-34.32l-12.278-58.108h-33.548l34.32 161.608h70.39c16.224 0 28.26-4.166 36.119-12.499 7.866-8.333 9.957-21.232 6.31-38.703-4.092-19.077-11.809-32.561-23.14-40.456zM411.711 383.007h-33.985c-0.44 2.413-0.627 4.676-0.547 6.797 0.072 2.122 0.291 4.534 0.655 7.236-5.335-4.676-11.153-8.661-17.435-11.95-7.596-3.875-15.641-5.812-24.119-5.812-10.82 0-19.098 3.086-24.832 9.265-5.732 6.179-7.404 14.928-4.987 26.259 3.144 14.69 11.067 25.326 23.785 31.904 6.943 3.58 16.638 6.14 29.057 7.674l10.854 1.317c5.997 0.729 10.342 1.645 13.052 2.74 4.823 1.903 7.668 4.862 8.55 8.88 1.018 4.895 0.029 8.278-2.959 10.142-2.994 1.864-7.789 2.796-14.369 2.796-7.377 0-13.009-1.825-16.88-5.482-2.71-2.701-4.936-6.359-6.693-10.963h-30.145c2.922 10.455 7.668 19.038 14.248 25.764 10.527 10.525 25.842 15.788 45.943 15.788 13.081 0 24.156-2.593 33.217-7.784 9.069-5.192 12.063-14.981 8.991-29.383l-11.729-54.819c-0.803-3.799-1.679-8.403-2.632-13.816-0.662-4.094-0.633-6.869 0.057-8.333s1.95-2.669 3.777-3.619l-0.877-4.6zM466.502 342.823c-5.741-5.444-15.52-8.167-29.334-8.167-2.775 0-5.007 0.016-6.687 0.055s-4.168 0.164-7.455 0.385l5.263 24.998 3.949-0.219c2.988-0.147 5.919-0.039 8.77 0.33 2.845 0.367 5.37 1.206 7.561 2.521 2.12 1.245 4.389 3.838 6.799 7.784s3.543 6.359 3.4 7.236l-17.326 124.768h34.761l7.34-88.15 43.418 88.15h33.225l-66.001-117.533c-12.716-22.657-21.948-36.712-27.683-42.158zM676.092 444.295c-4.461-21.051-12.583-37.097-24.39-48.132-11.807-11.037-25.166-16.556-40.075-16.556-9.503 0-16.886 2.374-22.149 7.127-2.922 2.632-5.476 6.468-7.674 11.512l-13.265-62.274h-30.921l35.416 166.541h29.932l-3.727-17.652c4.467 5.192 8.913 9.282 13.38 12.28 8.038 5.333 16.851 8.004 26.417 8.004 13.963 0 24.697-5.153 32.178-15.458 7.487-10.308 9.124-25.438 4.878-45.392zM801.464 468.195l-11.729-54.819c-0.803-3.799-1.679-8.403-2.632-13.816-0.655-4.094-0.633-6.869 0.057-8.333s1.95-2.669 3.785-3.619l-0.883-4.604h-33.987c-0.44 2.413-0.627 4.676-0.547 6.797 0.078 2.122 0.299 4.534 0.655 7.236-5.335-4.676-11.145-8.661-17.426-11.95-7.604-3.875-15.649-5.812-24.127-5.812-10.82 0-19.098 3.086-24.832 9.265-5.732 6.179-7.397 14.928-4.987 26.259 3.144 14.69 11.076 25.326 23.794 31.904 6.935 3.58 16.63 6.14 29.049 7.674l10.854 1.317c5.997 0.729 10.342 1.645 13.052 2.74 4.823 1.903 7.674 4.862 8.55 8.88 1.018 4.895 0.035 8.278-2.959 10.142s-7.789 2.796-14.369 2.796c-7.377 0-13.009-1.825-16.88-5.482-2.71-2.701-4.936-6.359-6.693-10.963h-30.145c2.922 10.455 7.674 19.038 14.254 25.764 10.521 10.525 25.842 15.788 45.935 15.788 13.081 0 24.156-2.593 33.217-7.784 9.071-5.188 12.065-14.977 8.993-29.379zM842.777 383.007h-31.246l34.32 161.608h31.246l-34.32-161.608z" />
<glyph unicode="&#xe623;" glyph-name="pencil" d="M864 960c88.352 0 160-71.648 160-160 0-36.032-11.904-69.248-32-96l-64-64-224 224 64 64c26.752 20.096 59.968 32 96 32zM64 224l-64-288 288 64 592 592-224 224-592-592zM715.584 596.416l-448-448-55.168 55.168 448 448 55.168-55.168z" />
<glyph unicode="&#xe624;" glyph-name="plus" d="M992 576h-352v352c0 17.664-14.336 32-32 32h-192c-17.664 0-32-14.336-32-32v-352h-352c-17.664 0-32-14.336-32-32v-192c0-17.664 14.336-32 32-32h352v-352c0-17.664 14.336-32 32-32h192c17.664 0 32 14.336 32 32v352h352c17.664 0 32 14.336 32 32v192c0 17.664-14.336 32-32 32z" />
<glyph unicode="&#xe625;" glyph-name="profile" d="M741.419 690.106c0-126.704-102.714-229.419-229.419-229.419s-229.419 102.714-229.419 229.419c0 126.704 102.714 229.419 229.419 229.419s229.419-102.714 229.419-229.419zM512 395.139c-223.242 0-404.214-180.972-404.214-404.214h808.428c0 223.242-180.972 404.214-404.214 404.214z" />
<glyph unicode="&#xe626;" glyph-name="puppeteer" d="M476.307 910.796c21.761 12.636 49.656 5.245 62.287-16.511 5.574-9.604 7.445-20.907 5.286-31.79l-61.032-299.226 20.948-3.564 159.825 287.936c12.36 21.923 40.124 29.689 62.061 17.347 21.395-12.053 29.391-38.891 18.079-60.693l-152.447-289.287 12.233-14.808 201.273 208.026c17.555 18.038 46.404 18.441 64.428 0.903 17.501-17.017 18.486-44.795 2.232-63.005l-208.916-232.99 11.357-22.867 232.136 61.768c24.331 6.388 49.232-8.154 55.637-32.504 6.054-23.048-6.695-46.901-29.246-54.653l-249.619-84.857-157.48-177.176-10.363-72c-3.226-22.443-22.474-39.094-45.148-39.067l-186.83 0.244c-22.678 0.036-41.882 16.733-45.049 39.176l-37.007 261.907-51.743 121.683c-0.732 1.735-1.36 3.505-1.875 5.313l-30.344 106.229-50.65 92.875c-12.017 22.109-3.844 49.774 18.264 61.79 20.866 11.343 46.946 4.757 59.925-15.147l56.595-87.102c0.989-1.518 1.879-3.094 2.683-4.721l51.865-105.416 31.591-12.382 37.464 21.558 48.261 69.439 82.002 335.199c2.977 11.954 10.666 22.186 21.318 28.375v0z" />
<glyph unicode="&#xe627;" glyph-name="remove" d="M974.976 849.21l-71.508 71.629-392.309-392.555-392.311 392.555-71.506-71.629 392.186-392.434-392.188-392.555 71.506-71.506 392.311 392.432 392.309-392.432 71.508 71.506-392.307 392.555 392.309 392.434z" />
<glyph unicode="&#xe628;" glyph-name="search" d="M685.099 356.269l288.67-288.645-71.461-71.447-288.632 288.65c-138.508-103.767-335.655-93.082-461.603 32.891-138.102 138.098-138.102 362.035 0 500.139 138.147 138.1 362.039 138.1 500.184 0 125.951-125.951 136.612-323.055 32.842-461.588zM223.54 746.413c-98.665-98.643-98.665-258.607 0-357.25 98.665-98.638 258.589-98.638 357.25 0 98.665 98.643 98.665 258.607 0 357.25-98.661 98.661-258.586 98.661-357.25 0z" />
<glyph unicode="&#xe629;" glyph-name="setting" d="M806.271 651.276c-37.391 66.673 13.099 165.703 13.099 165.703l-158.041 93.006c0 0-74.555-89.379-162.258-84.804-87.703 4.628-132.526 95.090-132.526 95.090l-184.012-108.503c0 0 67.123-75.146 22.39-162.123-44.736-86.978-158.994-98.033-158.994-98.033l5.030-183.201c0 0 108.14-7.704 150.202-97.624 42.058-89.919 5.666-180.613 5.666-180.613l148.435-94.319c0 0 78.049 97.897 169.145 91.008 91.055-6.932 136.243-94.998 136.243-94.998l156.139 92.005c0 0-41.155 88.293 2.54 178.984 43.689 90.692 150.653 88.787 150.653 88.787l3.443 190.361c0 0-129.762 42.558-167.153 109.274zM509.993 177.511c-153.785 0-278.467 124.638-278.467 278.465 0 153.782 124.682 278.47 278.467 278.47 153.782 0 278.467-124.689 278.467-278.47-0.002-153.827-124.687-278.465-278.467-278.465z" />
<glyph unicode="&#xe62a;" glyph-name="share" d="M864 256c-45.152 0-85.92-18.752-115.008-48.832l-431.008 215.488c1.312 8.256 2.016 16.704 2.016 25.312s-0.704 17.088-2.016 25.312l431.008 215.488c29.088-30.080 69.856-48.832 115.008-48.832 88.352 0 160 71.648 160 160s-71.648 160-160 160-160-71.648-160-160c0-8.608 0.704-17.088 2.016-25.312l-431.008-215.488c-29.088 30.080-69.856 48.832-115.008 48.832-88.352 0-160-71.648-160-160s71.648-160 160-160c45.152 0 85.92 18.752 115.008 48.832l431.008-215.488c-1.312-8.256-2.016-16.704-2.016-25.312 0-88.352 71.648-160 160-160s160 71.648 160 160c0 88.352-71.648 160-160 160z" />
<glyph unicode="&#xe62b;" glyph-name="social" d="M603.206 599.489c0-81.719-66.247-147.966-147.966-147.966s-147.966 66.247-147.966 147.966c0 81.719 66.247 147.966 147.966 147.966s147.966-66.247 147.966-147.966zM455.24 409.248c-143.981 0-260.7-116.72-260.7-260.7h521.4c0 143.981-116.72 260.7-260.7 260.7zM134.046 658.534c-25.416 0-46.025-20.611-46.025-46.025v-27.615h-36.821v-36.821h36.821v-128.87h36.821v128.87h41.423l9.206 36.821h-50.631v27.615c0 5.081 4.125 9.206 9.206 9.206h46.025v36.819h-46.025zM972.8 622.981c-10.633-4.717-22.071-7.905-34.071-9.343 12.243 7.346 21.647 18.964 26.083 32.815-11.465-6.795-24.16-11.737-37.667-14.393-10.824 11.528-26.237 18.729-43.295 18.729-32.76 0-59.314-26.554-59.314-59.314 0-4.653 0.524-9.179 1.536-13.517-49.295 2.476-93.006 26.094-122.259 61.979-5.106-8.763-8.032-18.946-8.032-29.825 0-20.582 10.471-38.732 26.391-49.375-9.722 0.307-18.864 2.972-26.87 7.418-0.008-0.244-0.008-0.498-0.008-0.75 0-28.74 20.445-52.709 47.577-58.157-4.979-1.356-10.22-2.079-15.63-2.079-3.822 0-7.535 0.371-11.158 1.067 7.545-23.562 29.454-40.712 55.411-41.189-20.302-15.911-45.879-25.389-73.671-25.389-4.788 0-9.505 0.281-14.15 0.831 26.247-16.833 57.426-26.653 90.927-26.653 109.105 0 168.763 90.384 168.763 168.772 0 2.574-0.053 5.132-0.172 7.67 11.592 8.366 21.647 18.811 29.598 30.702h0.010z" />
<glyph unicode="&#xe62c;" glyph-name="sphere" d="M480 896c-265.088 0-480-214.912-480-480s214.912-480 480-480c265.088 0 480 214.912 480 480s-214.912 480-480 480zM751.584 256c8.576 40.448 13.984 83.392 15.744 128h127.456c-3.328-44.192-13.632-87.104-30.688-128h-112.512zM208.416 576c-8.576-40.448-13.984-83.392-15.744-128h-127.456c3.328 44.192 13.632 87.104 30.688 128h112.512zM686.048 576c9.6-40.96 15.392-83.84 17.28-128h-191.328v128h174.048zM512 640v187.328c14.592-4.256 29.056-11.36 43.232-21.376 26.592-18.752 52-47.616 73.536-83.488 14.88-24.8 27.744-52.416 38.496-82.496h-155.264zM331.232 722.496c21.536 35.872 46.944 64.736 73.536 83.488 14.176 10.016 28.64 17.12 43.232 21.376v-187.328h-155.264c10.752 30.080 23.616 57.696 38.496 82.496zM448 576v-128h-191.328c1.888 44.16 7.68 87.040 17.28 128h174.048zM95.904 256c-17.056 40.896-27.328 83.808-30.688 128h127.456c1.76-44.608 7.168-87.552 15.744-128h-112.512zM256.672 384h191.328v-128h-174.048c-9.6 40.96-15.392 83.84-17.28 128zM448 192v-187.328c-14.592 4.256-29.056 11.36-43.232 21.376-26.592 18.752-52 47.616-73.536 83.488-14.88 24.8-27.744 52.416-38.496 82.496h155.264zM628.768 109.504c-21.536-35.872-46.944-64.736-73.536-83.488-14.176-9.984-28.64-17.12-43.232-21.376v187.328h155.264c-10.752-30.080-23.616-57.664-38.496-82.496zM512 256v128h191.328c-1.888-44.16-7.68-87.040-17.28-128h-174.048zM767.36 448c-1.76 44.608-7.168 87.552-15.744 128h112.512c17.056-40.896 27.36-83.808 30.688-128h-127.456zM830.656 640h-95.904c-18.624 58.752-44.384 110.304-75.328 151.424 42.528-20.352 81.056-47.616 114.72-81.28 21.472-21.472 40.352-44.928 56.512-70.144zM185.856 710.144c33.664 33.664 72.192 60.928 114.72 81.28-30.944-41.12-56.672-92.672-75.328-151.424h-95.904c16.128 25.216 35.008 48.672 56.512 70.144zM129.344 192h95.904c18.656-58.752 44.384-110.304 75.328-151.424-42.528 20.352-81.056 47.616-114.72 81.28-21.472 21.472-40.352 44.928-56.512 70.144zM774.144 121.856c-33.664-33.664-72.192-60.928-114.72-81.28 30.944 41.12 56.672 92.672 75.328 151.424h95.904c-16.128-25.216-35.008-48.672-56.512-70.144z" />
<glyph unicode="&#xe62d;" glyph-name="statue" d="M564.644 49.33v333.294c7.32-0.813 14.998-1.323 23.077-1.323 29.995 0 63.449 6.408 94.865 26.233 67.717 42.703 102.033 130.963 102.033 262.431v76.356c0 29.080-23.54 50.428-52.621 50.428s-52.564-25.825-52.564-54.802v-71.983c0-90.087-18.711-151.499-52.568-173.156-19.423-12.302-43.516-11.489-62.224-8.032v363.487c0 28.981-23.587 52.464-52.666 52.464s-52.568-23.484-52.568-52.464v-491.295c-18.809-3.561-43.010-4.372-62.278 8.137-34.009 21.656-52.568 83.167-52.568 173.15v76.362c0 29.282-23.536 50.428-52.615 50.428s-52.568-25.723-52.568-54.905v-71.883c0-131.467 34.265-219.722 102.033-262.523 31.47-19.829 64.817-26.132 95.017-26.132 7.881 0 15.555 0.51 22.979 1.219v-205.486h-147.649v-58.055h363.971v58.055h-111.086z" />
<glyph unicode="&#xe62e;" glyph-name="storyteller" d="M898.28 665.932c-97.36 193.998-219.106 193.818-219.106 193.818l-611.618-494.388c0.181 0 0.181 0 0.361-0.181-25.83-20.953-28.54-70.808-4.516-122.649 21.315-46.061 56.899-77.13 88.329-77.13 4.516 0 8.67 0.903 12.825 2.168 0 0-0.181-0.542-0.181-0.542l236.447 47.867c0-1.264-0.181-2.709 0.181-3.974l21.856-89.774c1.987-7.948 9.935-12.825 17.883-10.657l211.7 55.273c7.948 1.987 12.825 10.296 11.019 18.244l-19.147 80.020 301.835 73.156c0 0 78.575 76.949-47.867 328.749zM157.872 196.29c-15.173-7.045-46.964 14.27-67.556 58.705-19.508 42.268-16.618 82.187-1.084 89.413 1.806 0.903 3.793 1.264 6.141 1.264 16.257 0 43.352-20.953 61.415-59.97 19.689-42.268 16.799-82.007 1.084-89.413zM627.153 207.309c1.806-7.948-3.071-16.076-11.019-18.244l-154.079-40.1c-7.948-1.987-15.896 2.709-17.883 10.657l-14.451 59.428c-0.181 0.542-0.542 1.084-0.723 1.626l186.050 37.571 12.102-50.938z" />
<glyph unicode="&#xe62f;" glyph-name="stripe" d="M969.632 605.348v84.693c0 31.003-25.137 56.136-56.136 56.136h-809.331c-31.005 0-56.136-25.133-56.136-56.136v-84.693h921.602zM786.467 383.367c-11.536 0-17.605-10.525-19.020-32.989h37.030c-0.805 22.262-6.672 32.989-18.010 32.989zM48.032 542.284v-330.396c0-31.003 25.129-56.136 56.136-56.136h809.329c30.999 0 56.136 25.133 56.136 56.136v330.396h-921.6zM265.394 266.185c-10.121-8.096-25.094-12.345-43.112-12.345-22.661 0-44.528 6.881-56.263 13.56l6.074 37.847c13.763-8.096 34.81-14.369 47.557-14.369 10.328 0 15.991 3.846 15.991 10.523 0 6.881-5.868 11.334-23.472 17.609-27.329 9.916-44.122 21.656-44.122 49.181 0 15.18 5.462 27.728 15.991 36.43 10.115 8.298 24.283 12.751 41.284 12.751 24.084 0 41.49-6.679 49.99-10.727l-6.068-37.442c-10.725 5.261-26.311 11.131-41.49 11.131-8.301 0-12.954-3.24-12.954-8.905 0-6.679 8.094-10.928 22.868-16.394 27.726-9.916 44.933-21.656 44.933-49.787 0.002-17.002-5.874-30.157-17.205-39.062zM369.621 294.722c4.659 0 11.536 1.417 14.574 2.226v-39.465c-5.462-1.417-13.357-3.643-26.311-3.643-16.794 0-28.735 3.24-37.036 9.916-9.916 8.096-14.774 21.25-14.774 40.276v73.062h-20.769l5.677 34.781 15.157 2.458 6.224 38.115 43.098 7.092v-45.208h32.051l-6.068-37.239h-25.983v-65.776c-0.002-11.538 4.243-16.597 14.16-16.597zM487.211 368.945c-3.443 0.608-6.273 0.608-8.905 0.608-12.143 0-21.047-2.781-27.32-10.471v-102.207h-50.196v157.458h43.921l3.037-18.62c4.452 13.359 15.784 20.795 29.952 20.795 3.037 0 6.068-0.406 9.511-1.214v-46.348zM549.749 256.874h-50.395v157.458h50.395v-157.458zM524.655 429.916c-14.774 0-26.509 11.94-26.509 26.513 0 14.774 11.737 26.513 26.509 26.513 14.574 0 26.311-11.737 26.311-26.513 0-14.572-11.737-26.513-26.311-26.513zM687.299 272.458c-14.168-15.38-32.385-18.62-44.933-18.62-7.084 0-14.973 1.214-22.669 3.643v-50.598l-50.188-8.298v215.749h44.122l2.632-15.786c11.936 12.751 24.689 18.823 39.264 18.823 15.784 0 28.131-5.667 37.036-17.203 10.115-12.954 15.18-33.192 15.18-59.906-0.002-30.159-6.887-53.029-20.443-67.803zM851.030 319.615h-83.186c1.018-10.322 4.055-17.609 9.31-22.061 4.858-4.25 11.536-6.273 21.254-6.273 16.189 0 30.556 3.643 42.906 10.322l5.462-34.406c-12.548-8.298-32.379-13.357-53.83-13.357-23.28 0-41.29 6.072-53.838 18.215-13.963 13.56-21.047 34.81-21.047 63.144 0 50.598 26.509 82.17 69.216 82.17 20.849 0 37.237-7.287 48.169-21.453 10.725-13.965 16.189-33.798 16.189-58.894-0.002-3.643-0.408-14.977-0.606-17.406zM638.724 379.118c-2.83 0-10.527-1.012-19.028-9.916v-74.883c4.047-2.023 8.499-3.035 13.564-3.035 7.283 0 13.558 4.049 17.605 11.737 4.659 8.096 6.885 20.038 6.885 35.418 0 26.917-6.273 40.679-19.026 40.679z" />
<glyph unicode="&#xe630;" glyph-name="switch" d="M640 813.408v-135.968c36.192-15.808 69.504-38.4 98.272-67.168 60.448-60.448 93.728-140.8 93.728-226.272s-33.28-165.824-93.728-226.272c-60.448-60.448-140.8-93.728-226.272-93.728s-165.824 33.28-226.272 93.728c-60.448 60.448-93.728 140.8-93.728 226.272s33.28 165.824 93.728 226.272c28.768 28.768 62.080 51.392 98.272 67.168v135.968c-185.056-55.072-320-226.464-320-429.408 0-247.424 200.576-448 448-448s448 200.576 448 448c0 202.944-134.944 374.336-320 429.408zM448 960h128v-512h-128z" />
<glyph unicode="&#xe631;" glyph-name="theatre" d="M511.965 749.695c-250.407 8.378-444.017 291.926-453.202 18.674-9.206-273.306 177.971-750.817 428.313-759.171 250.321-8.364 469.045 455.438 478.206 728.689 9.15 273.287-203.002 3.406-453.317 11.809zM154.214 650.078c14.236 33.423 85.131 35.285 158.587 4.182 73.306-31.191 121.319-83.601 107.174-116.992-14.281-33.475-85.242-35.316-158.642-4.153-73.304 31.189-121.328 83.509-107.119 116.963zM625.601 205.933c-1.010-30.392-60.908-53.088-133.681-50.663-72.749 2.47-130.97 29.069-129.864 59.533 0.973 30.376 58.864-5.673 131.619-8.1 72.794-2.501 132.973 29.63 131.926-0.77zM748.427 516.508c-75.16-26.694-145.875-20.611-158.001 13.685-12.171 34.241 38.892 83.614 113.94 110.273 75.127 26.601 145.908 20.503 158.102-13.736 12.106-34.22-38.93-83.626-114.041-110.221z" />
<glyph unicode="&#xe632;" glyph-name="tool" d="M934.046 630.385c-15.294 8.374-36.442 8.149-52.027 16.91-30.493 17.267-38.349 42.521-39.643 80.030-66.609 71.621-166.136 135.031-304.757 133.026-37.54-0.582-72.915 1.133-102.081-14.098-8.342-11.446-0.129-16.685 9.312-19.368-9.378-4.463-22.376-4.721-20.242-22.538 87.951 12.417 241.703-20.177 230.128-95.906-2.587-16.847-23.767-34.791-38.414-50.508-40.839-44.718-84.038-79.221-121.612-118.571l10.865-10.865c23.992 16.847 46.561 25.35 68.033 25.35 22.86 0 36.248-9.603 41.097-14 18.561 19.982 37.702 40.225 59.529 59.916 15.682 14.356 33.919 35.568 50.508 38.124l30.622 3.267c37.282-1.52 62.665-9.378 80.030-39.805 8.763-15.553 8.763-36.862 16.847-52.156 5.755-10.476 30.331-39.383 42.424-39.739 9.54-0.291 19.53 6.435 28.971 15.843l33.337 33.434c9.409 9.507 16.232 19.401 15.813 28.973 0.612 12.222-28.262 36.991-38.738 42.682zM432.306 452.704l-23.96 23.96c-101.499-85.461-210.823-185.506-308.183-277.723-15.294-14.324-46.95-33.014-48.695-49.762-2.683-25.254 15.497-58.391 33.475-75.69 17.977-17.234 54.411-40.78 79.698-37.804 16.458 1.391 35.406 33.272 49.924 48.566 72.915 76.763 150.811 160.93 222.56 242.803-10.088 11.997-16.103 19.304-16.103 19.304-4.43 6.205-28.877 44.362 11.284 106.346zM678.697 443.359c-11.866 10.25-47.436-4.657-57.264 3.912-10.088 8.634 5.53 40.71-2.005 47.047-15.489 13.128-24.93 20.888-24.93 20.888s-27.873 26.806-90.925-30.040l-251.726 251.597c-12.771 12.804-7.664 58.946-7.664 58.946l-119.187 67.91-28.908-28.94 67.903-119.218c0 0 46.174 5.11 58.978-7.631l251.953-251.986c-50.055-59.206-28.94-88.986-28.94-88.986s7.696-9.312 20.888-24.93c6.339-7.406 38.414 7.922 47.047-2.005 8.536-10.088-6.339-45.593 3.881-57.459 86.237-99.009 223.951-250.077 262.722-250.077 28.842 0 65.35 23.572 95.322 53.223 29.909 29.651 52.996 66.513 52.996 95.031 0.035 38.867-151.067 176.515-250.141 262.719z" />
<glyph unicode="&#xe633;" glyph-name="troubadour" d="M654.97 518.175c-6.141 34.501-16.437 57.080-44.074 57.080-19.869 0-149.382-15.896-226.873-15.896-25.469 0-45.88 1.626-55.454 6.141-2.89-5.6-5.058-15.896-5.058-21.495 0-24.385 16.979-43.532 46.964-43.532 22.037 0 50.938 2.89 82.549 6.864-9.032-35.043-27.095-85.981-42.99-128.971-41.365-113.798-61.595-173.768-74.059-220.732 16.979-27.637 37.391-43.532 63.402-47.506 10.115 63.944 26.553 128.971 59.428 229.221 16.979 51.48 47.506 134.029 69.001 177.019 24.927 2.89 49.854 4.516 73.517 4.516 13.367 0 34.32-1.084 53.648-2.709zM724.152 718.315c-10.477 20.050-22.76 35.584-34.139 42.268 2.348-10.115-1.264-18.966-3.974-23.663-1.084 0.542-2.348 0.903-3.432 1.445-4.696 20.050-25.469 93.206-83.090 120.662 3.974-11.019 3.974-27.095 3.974-27.095-18.786 34.501-50.035 53.828-63.040 56.718 9.032-11.56 18.244-27.456 18.244-27.456s-46.422 38.655-104.044 47.867c2.89-5.238 3.432-17.16 3.432-17.16s-45.519 30.527-100.973 29.624c8.851-3.974 25.108-14.812 25.108-14.812-46.422 5.419-153.717 30.527-253.245-3.251 106.211-13.728 221.996-67.195 221.996-67.195s-9.393-6.322-26.553-5.78c44.435-46.061 146.312-63.402 146.312-63.402s-25.288-9.573-41.184-11.019c0.723-1.084 1.445-2.168 2.348-3.071-161.304-45.519-279.798-193.818-279.798-369.391 0-211.7 172.322-384.023 384.023-384.023s384.023 172.322 384.023 384.023c0 143.421-79.117 268.78-195.985 334.71zM453.385 826.152c-22.76 12.464-46.422 23.663-70.446 33.778-48.048 20.050-98.444 34.862-150.466 42.99 52.564-2.529 104.766-14.451 154.44-33.056 6.141-2.348 12.464-4.696 18.424-7.225 6.141-2.529 12.283-5.058 18.244-7.767 12.102-5.419 24.024-11.199 35.765-17.16 23.482-12.283 46.242-25.83 68.279-40.461 14.631-9.935 28.901-20.231 42.99-31.069 6.864-5.419 13.909-10.838 20.592-16.437l29.804-26.372c9.573-9.032 18.966-18.244 27.998-27.998 18.244-19.147 35.223-39.558 50.216-61.415 7.406-10.657 14.27-21.856 20.231-33.236-6.503 10.477-13.547 19.689-20.773 27.456-1.084-0.181-1.987-0.361-3.071-0.723-0.723 0.903-1.264 1.626-1.987 2.529-8.128 10.296-16.437 20.231-25.288 29.804s-17.883 18.966-27.095 28.179c-11.019 10.657-22.218 20.953-33.597 31.069v0c0 0 0 0 0 0-3.974 3.432-7.948 6.864-11.922 10.296-4.335 3.613-8.49 7.045-12.825 10.657-5.961 4.696-11.922 9.393-17.883 14.089-0.181 0.181-0.542 0.361-0.723 0.542-14.451 11.019-29.262 21.676-44.435 31.791-21.134 13.909-43.532 27.275-66.472 39.739zM722.887 370.961c0-88.329-57.621-202.488-110.908-221.274-16.979 2.89-25.469 13.005-25.469 32.333 0 58.886 81.465 182.257 135.835 205.378 0.542-2.709 0.542-3.432 0.542-16.437zM536.114 40.947c-188.941 0-342.658 153.717-342.658 342.658 0 166.723 119.759 305.99 277.631 336.336 46.242-29.624 108.74-52.383 108.74-52.383s-26.553 1.806-29.443-9.754c24.566-4.516 94.109-50.035 94.109-50.035s-6.141-2.529-15.173-3.974c4.335-5.238 10.477-10.657 17.341-15.896-0.181-0.181-0.181-0.542-0.361-0.903 9.032-14.451 16.979-27.637 23.843-39.92l-11.56-3.613 13.186 0.903c33.959-60.331 44.255-97.541 49.854-146.853-15.354 14.089-37.391 24.385-52.022 24.385-57.802-14.089-133.487-134.57-133.487-212.784 0-48.048 28.359-76.407 80.381-82.007 76.407 13.005 160.040 157.872 160.040 276.186 0 43.713-10.838 94.47-27.998 138.725l29.804-17.16-30.888 29.262 35.043 3.071-32.694 7.587c0 0 15.715 8.49 21.134 12.102l-30.888-8.309c12.644 25.288 12.464 58.705 5.419 90.677 81.104-64.485 133.306-165.458 133.306-275.644 0-188.941-153.717-342.658-342.658-342.658z" />
<glyph unicode="&#xe634;" glyph-name="tumblr" d="M576.032 512v-234.176c0-59.424-0.768-93.664 5.536-110.496 6.24-16.768 21.92-34.144 38.976-44.192 22.688-13.6 48.544-20.384 77.696-20.384 51.84 0 82.464 6.848 133.728 40.544v-153.952c-43.712-20.544-81.856-32.608-117.312-40.928-35.488-8.256-73.856-12.416-115.072-12.416-46.816 0-74.464 5.888-110.4 17.664-35.968 11.872-66.656 28.8-92.032 50.528-25.44 21.92-43.008 45.216-52.864 69.824s-14.72 60.416-14.72 107.232v359.104h-137.44v144.992c40.192 13.056 85.152 31.776 113.792 56.16 28.768 24.448 51.776 53.696 69.12 87.936 17.376 34.144 29.344 77.728 35.872 130.528h165.088v-256h255.968v-192h-255.968z" />
<glyph unicode="&#xe635;" glyph-name="twitter" d="M1024 765.568c-37.664-16.704-78.176-28-120.672-33.088 43.36 26.016 76.672 67.168 92.384 116.224-40.608-24.064-85.568-41.568-133.408-50.976-38.336 40.832-92.928 66.336-153.344 66.336-116.032 0-210.080-94.048-210.080-210.080 0-16.48 1.856-32.512 5.44-47.872-174.592 8.768-329.408 92.416-433.024 219.52-18.080-31.040-28.448-67.104-28.448-105.632 0-72.896 37.088-137.184 93.472-174.88-34.432 1.088-66.816 10.528-95.168 26.272-0.032-0.864-0.032-1.76-0.032-2.656 0-101.792 72.416-186.688 168.512-205.984-17.632-4.8-36.192-7.36-55.36-7.36-13.536 0-26.688 1.312-39.52 3.776 26.72-83.456 104.32-144.192 196.256-145.888-71.904-56.352-162.496-89.92-260.928-89.92-16.96 0-33.664 0.992-50.112 2.944 92.96-59.616 203.392-94.4 322.048-94.4 386.432 0 597.728 320.128 597.728 597.76 0 9.12-0.192 18.176-0.608 27.168 41.056 29.632 76.672 66.624 104.832 108.736z" />
<glyph unicode="&#xe636;" glyph-name="video" d="M903.354 780.384h-786.937c-38.342 0-69.429-31.387-69.429-70.078v-524.143c0-38.687 31.089-70.078 69.429-70.078h786.937c38.315 0 69.427 31.39 69.427 70.078v524.143c-0.002 38.691-31.112 70.078-69.427 70.078zM509.883 242.147c-112.779 0-204.233 92.263-204.233 206.086 0 113.869 91.454 206.135 204.233 206.135s204.233-92.265 204.233-206.135c0-113.823-91.454-206.086-204.233-206.086zM431.923 571.33v-246.171l211.187 123.097-211.187 123.074z" />
<glyph unicode="&#xe637;" glyph-name="vimeo" d="M0 651.616l41.6-54.528c0 0 85.76 67.616 114.368 33.792s137.728-441.952 174.176-517.248c31.808-66.016 119.52-153.312 215.712-90.976 96.128 62.336 415.84 335.296 473.056 657.6 57.184 322.24-384.736 254.72-431.52-26.016 116.992 70.24 179.424-28.544 119.584-140.384-59.744-111.712-114.368-184.608-142.944-184.608-28.544 0-50.496 74.784-83.2 205.44-33.792 135.104-33.6 378.464-174.112 350.88-132.512-26.016-306.688-233.984-306.688-233.984z" />
<glyph unicode="&#xe638;" glyph-name="youtube" d="M293.184 960l-69.184-137.248-69.184 137.248h-88.256l124.704-217.312 0.736 0.416v-167.104h64v167.104l0.736-0.416 124.704 217.312zM480 832c17.344 0 32-14.656 32-32v-128c0-17.344-14.656-32-32-32s-32 14.656-32 32v128c0 17.344 14.656 32 32 32zM480 896c-52.8 0-96-43.2-96-96v-128c0-52.8 43.2-96 96-96s96 43.2 96 96v128c0 52.8-43.2 96-96 96v0zM768 896v-251.968c-27.936-23.296-64-37.344-64 45.632v206.336h-64v-219.328h0.096c0.992-52.896 12.128-148.16 127.904-70.72v-29.952h64v320h-64zM864 256c-17.632 0-32-14.368-32-32v-32h64v32c0 17.632-14.368 32-32 32zM576 224v-168c21.664-21.664 64-24 64 8s0 118.016 0 150.016-32 42.016-64 10.016zM1018.752 378.464c-2.784 36.864-16.032 66.944-39.776 90.24s-54.080 36-91.072 38.080c-69.792 3.488-229.44 5.216-369.728 5.216s-311.296-1.728-381.088-5.216c-36.992-2.080-67.328-14.784-91.072-38.080s-36.992-53.376-39.776-90.24c-4.192-75.104-6.272-102.336-6.272-139.904s2.080-93.888 6.272-169.024c2.784-36.864 16.064-66.944 39.776-90.24s54.080-36 91.072-38.080c69.792-3.488 240.8-5.216 381.088-5.216s299.936 1.728 369.728 5.216c36.992 2.080 67.328 14.784 91.072 38.080s36.992 53.376 39.776 90.24c3.488 62.592 5.248 118.944 5.248 169.024s-1.76 77.312-5.248 139.904zM192 0h-64v320h-64v64h192v-64h-64v-320zM448 0h-64v29.952c-121.664-68.288-126.912-2.208-127.904 50.72h-0.096v175.328h64v-176.32c0-38.656 36.064-34.912 64-11.648v187.968h64v-256zM704 64.928c0-66.88-68.512-86.4-128-34.4v-30.528h-64v384h64v-104c64 64 128 40 128-24s0-121.184 0-191.072zM960 192v-32h-128v-64c0-17.632 14.368-32 32-32s32 14.368 32 32v32h64v-32c0-52.928-43.072-96-96-96s-96 43.072-96 96v128c0 52.928 43.072 96 96 96s96-43.072 96-96v-32z" />
<glyph unicode="&#xe640;" glyph-name="facebook-square" d="M832 960h-640c-106.105 0-192-85.895-192-192v-640c0-106.105 85.895-192 192-192h640c106.105 0 192 85.895 192 192v640c0 106.105-85.895 192-192 192zM644.421 448h-84v-307.158h-115.158v307.158h-76.842v105.895h76.842l-0.211 62.316c0 86.316 23.368 138.947 125.053 138.947h84.632v-105.895h-53.053c-39.579 0-41.474-14.737-41.474-42.316l-0.211-53.053h95.158l-10.737-105.895z" />
<glyph unicode="&#xe641;" glyph-name="instagram-square" d="M131.417 960h761.166c72.542 0 131.417-53.618 131.417-131.417v-761.166c0-77.799-58.875-131.417-131.417-131.417h-761.166c-72.542 0-131.417 53.618-131.417 131.417v761.166c0 77.799 58.875 131.417 131.417 131.417v0zM745.396 846.456c-25.232 0-46.259-21.027-46.259-46.259v-110.39c0-25.232 21.027-46.259 46.259-46.259h115.647c25.232 0 46.259 21.027 46.259 46.259v110.39c0 25.232-21.027 46.259-46.259 46.259h-115.647zM908.353 526.85h-90.415c8.411-27.335 12.616-57.823 12.616-88.312 0-170.316-142.982-308.041-318.554-308.041s-318.554 137.725-318.554 308.041c0 30.489 4.205 59.926 12.616 88.312h-93.569v-432.099c0-22.078 17.873-41.002 41.002-41.002h712.805c22.078 0 41.002 17.873 41.002 41.002l1.051 432.099zM513.051 649.856c-113.544 0-206.062-89.363-206.062-199.754s92.517-199.754 206.062-199.754c113.544 0 206.062 89.363 206.062 199.754s-92.517 199.754-206.062 199.754z" />
<glyph unicode="&#xe642;" glyph-name="twitter-square" d="M832 960h-640c-106.105 0-192-85.895-192-192v-640c0-106.105 85.895-192 192-192h640c106.105 0 192 85.895 192 192v640c0 106.105-85.895 192-192 192zM766.737 562.947l0.421-16.421c0-166.737-126.737-358.737-358.737-358.737-71.158 0-137.474 20.842-193.263 56.632 9.895-1.053 20-1.895 30.105-1.895 59.158 0 113.474 20.211 156.632 53.895-55.158 1.053-101.684 37.474-117.684 87.579 7.789-1.474 15.579-2.105 23.789-2.105 11.579 0 22.737 1.474 33.263 4.421-57.684 11.579-101.053 62.526-101.053 123.579v1.684c17.053-9.474 36.421-15.158 57.053-15.789-33.895 22.526-56 61.263-56 104.842 0 23.158 6.105 44.632 17.053 63.368 62.105-76.211 155.158-126.526 259.789-131.789-2.105 9.263-3.368 18.947-3.368 28.632 0 69.474 56.421 126.105 126.105 126.105 36.211 0 69.053-15.368 92-39.789 28.632 5.684 55.579 16.211 80 30.526-9.474-29.474-29.474-54.105-55.368-69.684 25.474 2.947 49.895 9.895 72.421 19.789-17.053-25.053-38.526-47.158-63.158-64.842z" />
<glyph unicode="&#xe643;" glyph-name="vimeo-square" d="M967.721 903.721c-37.597 37.597-82.667 56.279-135.677 56.279h-640.088c-52.776 0-98.080-18.682-135.677-56.279s-56.279-82.901-56.279-135.677v-640.088c0-52.776 18.682-98.080 56.279-135.677s82.901-56.279 135.677-56.279h640.088c52.776 0 98.080 18.682 135.677 56.279s56.279 82.901 56.279 135.677v640.088c0 52.776-18.682 98.080-56.279 135.677zM836.014 620.691c-6.305-32.46-24.52-82.901-55.112-151.090-30.358-68.189-68.889-133.342-115.127-194.992-53.010-71.225-108.355-123.767-166.736-158.095-15.179-9.341-31.993-16.347-50.675-21.017s-37.597-4.437-56.746 0.934c-27.089 11.443-49.974 39.232-68.656 83.368-9.341 22.652-21.951 66.554-38.064 131.24-15.88 62.584-27.789 104.151-35.262 124.701-2.102 5.838-4.904 14.712-8.407 27.089-3.269 12.143-6.772 22.885-10.042 31.993s-7.473 17.748-12.377 25.688c-7.473 12.844-16.814 19.616-27.556 20.083-10.976 0.467-23.819-1.868-38.765-7.006s-27.089-7.006-36.43-5.605c-5.371 0.934-10.042 5.371-14.245 13.311s-9.808 13.778-17.047 17.281v4.67c17.748 12.377 45.070 35.029 81.733 67.955s67.021 56.513 91.074 70.758c31.059 18.215 59.315 23.819 84.769 16.58 11.91-3.503 23.119-12.377 33.627-26.622s18.448-29.657 23.586-46.004c4.904-15.646 12.377-52.076 22.652-109.289 1.401-8.874 3.269-24.753 5.605-47.639s4.67-41.567 6.772-56.046c2.102-14.478 6.305-30.592 12.61-48.573 6.539-17.981 14.712-32.46 24.987-42.968 19.149-20.55 38.531-23.586 57.914-9.341 12.377 9.341 28.256 31.292 47.405 66.087 20.784 40.4 32.46 72.159 34.561 95.278 3.036 33.861-2.802 55.812-17.748 66.087s-40.166 13.778-75.662 10.742c7.006 21.718 17.047 42.034 29.657 60.95s25.921 34.561 39.699 46.705c13.778 12.143 28.023 23.119 42.968 32.226 14.945 9.341 27.556 16.113 38.298 20.317s19.849 7.006 27.322 8.407c60.016 8.874 101.583-1.168 124.701-29.891 17.281-21.251 21.951-50.441 14.712-88.272z" />
<glyph unicode="&#xe644;" glyph-name="youtube-square" d="M832.088 960h-640.176c-105.924 0-191.912-85.988-191.912-191.912v-639.975c0-106.125 85.988-191.912 191.912-191.912h639.975c106.125 0 191.912 85.988 191.912 191.912v639.975c0.201 105.924-85.786 191.912-191.711 191.912zM826.651 333.316c-3.423-42.692-35.845-97.064-81.155-104.917-144.991-11.277-316.765-9.867-466.992 0-46.921 5.84-77.731 62.427-81.155 104.917-7.25 89.411-7.25 140.359 0 229.972 3.423 42.49 35.040 98.675 81.155 103.91 148.415 12.485 321.196 9.867 466.992 0 52.157-2.014 77.731-55.58 81.155-98.272 7.048-89.613 7.048-146.199 0-235.611zM448.063 320.025l191.912 127.874-191.912 128.076z" />
<glyph unicode="&#xe645;" glyph-name="website-square" d="M832.088 960h-640.176c-106.125 0-191.912-85.988-191.912-191.912 0 0 0 0 0 0v-639.975c0-106.125 85.988-191.912 191.912-191.912 0 0 0 0 0 0h639.975c106.125 0 191.912 85.988 191.912 191.912 0 0 0 0 0 0v639.975c0.201 105.924-85.786 191.912-191.711 191.912 0 0 0 0 0 0zM967.816 368.758c0-36.852-29.804-66.656-66.656-66.656h-778.321c-36.852 0-66.656 29.804-66.656 66.656v158.282c0 36.852 29.804 66.656 66.656 66.656h778.321c36.852 0 66.656-29.804 66.656-66.656v-158.282zM292.399 430.984l-31.818 98.473h-43.9l-31.818-98.473-31.818 98.473h-46.921l55.379-162.914h46.921l30.408 88.807 29.804-88.807h47.324l55.58 162.914h-47.324zM565.667 430.984l-31.818 98.473h-43.9l-31.818-98.473-31.818 98.473h-46.921l55.379-162.914h46.921l30.408 88.807 30.005-88.807h47.122l55.58 162.914h-47.324zM838.935 430.984l-31.818 98.473h-43.9l-31.818-98.473-31.818 98.473h-46.921l55.379-162.914h46.921l30.408 88.807 30.005-88.807h47.122l55.58 162.914h-47.324z" />
<glyph unicode="&#xe646;" glyph-name="video-cam" d="M922.066 51.073c-27.126 0-52.132 11.232-72.477 29.457l-133.722 133.722v-90.702c0-18.225-15.894-33.907-33.907-33.907h-580.026c-56.583 0-101.934 45.351-101.934 101.934v512c0 56.583 45.351 101.934 101.934 101.934h580.026c18.225 0 33.907-15.894 33.907-33.907v-90.702l133.722 133.722c29.457 29.457 72.477 38.57 111.046 22.675s63.364-52.132 63.364-95.152v-588.927c0-43.020-25.007-76.927-63.364-95.152-13.775-4.662-27.338-6.993-38.57-6.993zM681.96 332.079c9.113 0 18.225-4.45 25.007-9.113l190.305-190.305c15.894-15.894 31.788-9.113 36.238-6.781s20.344 11.232 20.344 31.788v588.927c0 20.344-15.894 29.457-20.344 31.788s-22.675 6.781-36.238-6.781l-190.305-197.086c-9.113-9.113-25.007-13.563-36.238-6.781-13.563 4.45-20.344 18.225-20.344 31.788v137.96h-548.45c-18.225 0-33.907-15.894-33.907-33.907v-512c0-18.225 15.894-33.907 33.907-33.907h545.907v138.172c0 13.563 9.113 27.126 20.344 31.788 4.662 2.119 9.113 4.45 13.775 4.45zM512 592.53h-90.702c-18.225 0-33.907 15.894-33.907 33.907s15.894 33.907 33.907 33.907h90.702c18.225 0 33.907-15.894 33.907-33.907 0-20.344-15.894-33.907-33.907-33.907zM308.132 592.53c-18.225 0-33.907 15.894-33.907 33.907s15.894 33.907 33.907 33.907 33.907-15.894 33.907-33.907c0-20.344-15.894-33.907-33.907-33.907z" />
<glyph unicode="&#xe647;" glyph-name="like" d="M941.29 814.552c-53.621 53.621-124.608 82.927-200.371 82.927s-146.968-29.524-200.589-83.144l-28.004-28.004-28.438 28.438c-53.621 53.621-125.042 83.361-200.806 83.361-75.546 0-146.751-29.524-200.154-82.927-53.621-53.621-83.144-124.825-82.927-200.589 0-75.763 29.741-146.751 83.361-200.371l407.69-407.69c5.644-5.644 13.242-8.683 20.623-8.683s14.979 2.822 20.623 8.466l408.558 407.038c53.621 53.621 83.144 124.825 83.144 200.589 0.217 75.763-29.090 146.968-82.71 200.589zM899.609 454.838l-387.935-386.415-387.066 387.066c-42.549 42.549-65.994 98.992-65.994 159.125s23.228 116.576 65.777 158.908c42.332 42.332 98.775 65.777 158.691 65.777 60.133 0 116.793-23.445 159.342-65.994l49.062-49.062c11.506-11.506 29.958-11.506 41.464 0l48.628 48.628c42.549 42.549 99.209 65.994 159.125 65.994s116.359-23.445 158.908-65.777c42.549-42.549 65.777-98.992 65.777-159.125 0.217-60.133-23.228-116.576-65.777-159.125z" />
<glyph unicode="&#xe648;" glyph-name="like-liked" d="M509.952 753.152c40.96 98.304 135.168 165.888 245.76 165.888 147.456 0 253.952-126.976 268.288-276.48 0 0 8.192-36.864-8.192-104.448-22.528-92.16-71.68-174.080-141.312-235.52l-364.544-325.632-358.4 323.584c-69.632 61.44-118.784 143.36-141.312 235.52-16.384 67.584-8.192 104.448-8.192 104.448 12.288 151.552 118.784 278.528 268.288 278.528 108.544 0 196.608-67.584 239.616-165.888z" />
<glyph unicode="&#xe649;" glyph-name="share-arrow" horiz-adv-x="1141" d="M1134.311 559.091l-394.223 394.223c-8.914 8.914-23.176 8.914-32.091 0-4.234-4.234-6.686-10.028-6.686-16.045v-214.605h-110.757c-326.254 0-590.555-264.301-590.555-590.555v-173.378c0-12.48 10.251-22.731 22.731-22.731 6.463 0 12.48 2.674 16.714 7.354l207.251 226.639c112.54 123.014 271.432 192.989 438.125 193.212h16.491v-214.605c0-12.48 10.251-22.731 22.731-22.731 6.017 0 11.811 2.451 16.045 6.686l394.223 394.223c8.914 8.914 8.914 23.399 0 32.313v0zM746.773 203.644v182.515c0 12.48-10.251 22.731-22.731 22.731v0h-39.222c-179.395-0.446-350.545-75.769-471.775-208.143l-167.584-183.406v114.768c0 300.403 244.467 545.093 545.093 545.093h133.488c12.48 0 22.731 10.251 22.731 22.731 0 0 0 0 0 0v182.515l339.402-339.402-339.402-339.402z" />
<glyph unicode="&#xe64a;" glyph-name="donate" horiz-adv-x="763" d="M657.153 581.086c-46.89 79.644-101.021 137.568-158.255 171.356 57.234 38.615 91.367 103.434 91.367 172.391 0 19.308-15.86 35.168-35.168 35.168 0 0 0 0 0 0h-346.505c-19.308 0-35.168-15.515-35.168-35.168 0 0 0 0 0 0 0-68.956 34.133-133.43 91.367-172.391-56.889-33.789-111.020-91.712-157.91-171.356-64.819-109.296-106.537-246.519-106.537-349.953 0-101.021 40.684-181.010 117.57-231.348 64.819-42.408 153.772-64.129 264.447-64.129s199.628 21.376 264.447 63.785c76.886 50.338 117.57 130.327 117.57 231.348-0.69 103.779-42.753 241.002-107.227 350.298zM248.242 889.665h267.205c-19.308-73.783-94.815-117.915-168.598-98.263-48.269 12.412-85.851 49.993-98.607 98.263zM607.504 58.742c-52.407-34.478-130.672-52.407-225.832-52.407s-173.425 18.273-225.832 52.407c-57.578 37.581-85.506 94.125-85.506 172.391 0 91.367 37.926 214.799 96.539 314.096 64.129 108.606 142.395 171.011 214.799 171.011s150.669-62.405 214.799-171.011c58.613-99.297 96.539-222.384 96.539-314.096 0.345-78.265-27.927-134.465-85.506-172.391zM476.832 471.1c-36.202 0-70.335-14.826-95.16-41.374-48.959 52.407-131.017 55.51-183.768 6.551-26.548-24.824-41.719-59.647-41.374-96.194 0-118.26 186.182-229.969 207.558-242.381 11.033-6.551 24.479-6.551 35.512 0 21.376 12.412 207.558 124.466 207.558 242.381 0 72.404-58.268 131.017-130.327 131.017zM381.673 169.762c-59.992 38.615-154.807 115.502-154.807 170.667 0 33.099 26.893 59.992 59.647 59.992 33.099 0 59.992-26.893 59.992-59.647 0 0 0 0 0 0 0-19.308 15.86-35.168 35.168-35.168s35.168 15.86 35.168 35.168v0c-0.69 33.099 25.169 60.337 58.268 61.371 33.099 0.69 60.337-25.169 61.371-58.268 0-1.034 0-2.069 0-2.758 0-54.475-88.609-129.293-154.807-171.356v0z" />
<glyph unicode="&#xe64b;" glyph-name="hire" horiz-adv-x="993" d="M886.217 581.179l100.295 100.295c8.879 8.879 8.879 23.676 0 32.555 0 0 0 0 0 0l-239.394 239.723c-8.879 8.879-23.676 8.879-32.555 0 0 0 0 0 0 0l-47.024-47.024c-55.245 27.294-121.999 16.442-165.405-27.294l-104.899-104.899c-14.798 1.315-29.924 1.644-45.051 0.658l-73.331 73.331c-8.879 8.879-23.676 8.879-32.555 0 0 0 0 0 0 0l-239.394-239.394c-8.879-8.879-8.879-23.676 0-32.555 0 0 0 0 0 0l36.172-36.172-14.469-143.702c-18.744-44.722 2.302-96.021 47.024-114.764 10.852-4.604 22.361-6.906 33.87-6.906h3.946c0-1.315 0-2.631 0-3.946 0-48.668 39.461-87.8 87.8-87.8v0h3.946c-2.302-48.339 35.186-89.444 83.525-91.746 1.315 0 2.631 0 3.946 0h3.946c-2.302-48.339 35.514-89.444 83.854-91.746 17.757-0.658 35.514 3.946 50.641 13.482 0.329-0.329 0.658-0.658 0.987-0.987l49.983-49.983c35.186-34.857 92.075-34.528 126.931 0.658 16.771 16.771 25.978 39.461 25.978 63.137 0 1.644 0 3.288 0 4.604 1.644 0 3.288 0 4.604 0 49.654 0 89.773 40.118 89.773 89.773 0 1.644 0 3.288 0 4.933 1.644 0 3.288 0 4.604 0 49.654 0 89.773 40.118 89.773 89.773 0 0 0 0 0 0 0 1.644 0 3.288 0 4.933 1.644 0 3.288 0 4.933 0 49.654 0 89.773 40.118 89.773 89.773 0 24.005-9.536 46.695-26.307 63.466l-53.601 53.601c29.924 45.708 46.037 99.309 46.037 153.896l1.644 0.329zM730.677 904.426l206.839-206.839-57.875-57.875c-11.18 53.601-37.816 102.926-76.619 141.729l-97.994 97.994 25.649 24.992zM79.908 333.236c-16.442 16.442-16.442 42.749 0 59.191v0l34.857 34.857c16.442 16.442 42.749 16.442 59.191 0s16.442-42.749 0-59.191l-34.857-34.857c-16.442-16.442-42.749-16.442-59.191 0zM201.249 229.323c-23.019 0-41.762 18.744-41.762 41.762 0 11.18 4.275 21.703 12.167 29.595v0l66.425 66.425c16.442 16.442 42.749 16.442 59.191 0s16.442-42.749 0-59.191l-66.096-66.096c-8.221-8.221-18.744-12.496-29.924-12.496v0zM292.665 137.577c-23.019 0-41.762 18.744-41.762 41.762 0 11.18 4.275 21.703 12.167 29.595v0l66.754 66.425 27.951 27.951c16.442 16.442 42.749 16.442 59.191 0s16.442-42.749 0-59.191l-27.951-27.622-66.425-66.754c-7.892-7.892-18.415-12.167-29.924-12.167v0zM354.816 57.999c-16.442 16.442-16.442 42.749 0 59.191l66.425 66.425c16.442 16.442 42.749 16.442 59.191 0s16.442-42.749 0-59.191l-66.425-66.425c-16.113-16.113-42.749-16.113-59.191 0v0zM873.064 309.231c0-24.334-19.73-43.735-43.735-43.735-11.509 0-22.69 4.604-30.911 12.825l-13.154 13.154c-8.879 8.879-23.676 8.879-32.555 0s-8.879-23.676 0-32.555l13.154-13.154c17.1-17.1 17.1-44.722 0-61.821s-44.722-17.1-61.821 0l-13.154 13.154c-8.879 8.879-23.676 8.879-32.555 0s-8.879-23.676 0-32.555l13.154-13.154c17.1-17.1 17.1-44.722 0-61.821s-44.722-17.1-61.821 0v0 0l-13.154 13.154c-8.879 8.879-23.676 8.879-32.555 0s-8.879-23.676 0-32.555l13.154-13.154c17.1-17.1 17.1-44.722 0-61.821s-44.722-17.1-61.821 0l-49.326 49.326 47.681 47.681c34.199 34.199 34.199 89.773 0 124.301-12.167 12.167-27.622 20.717-44.722 24.005 18.415 45.051-2.96 96.349-48.010 114.764-21.374 8.879-45.38 8.879-66.754 0-9.536 47.681-56.231 78.263-103.584 68.727-6.906-1.315-13.482-3.617-20.059-6.577-10.852 47.353-57.875 76.948-105.228 66.425-16.113-3.617-30.911-11.838-42.749-23.676l-1.315-1.315 8.879 88.457c0.658 6.906-1.644 13.811-6.577 18.415l-27.622 27.622 206.839 206.839 64.452-64.452c4.604-4.604 10.852-6.906 17.1-6.577h1.973c16.113 1.644 32.226 1.644 48.339 0l-14.14-146.662c-4.933-51.299 32.226-97.007 83.525-101.94 0 0 0 0 0.329 0 2.96-0.329 5.919-0.329 9.207-0.329 48.010 0 88.128 36.501 92.732 84.182l6.248 64.781 288.39-288.39c7.563-8.879 12.167-20.059 12.167-31.568v0zM805.981 459.509l-223.61 223.61c-1.315 1.315-2.96 2.631-4.604 3.617l4.275 45.38c1.315 12.496-7.892 24.005-20.717 24.992-12.496 1.315-24.005-7.892-24.992-20.717l-16.442-168.694c-2.631-25.978-25.649-45.051-51.627-42.42s-45.051 25.649-42.42 51.627l17.428 178.23 91.088 91.088c38.145 38.145 99.967 38.145 138.441 0l97.994-97.994c76.29-76.29 91.088-195.658 35.186-288.719v0z" />
<glyph unicode="&#xe661;" glyph-name="map-pin-poi" d="M944.632 527.368c0-238.947-432.421-591.368-432.421-591.368s-432.842 352.632-432.842 591.368c0 238.737 193.684 432.632 432.632 432.632s432.632-193.684 432.632-432.632z" />
<glyph unicode="&#xe662;" glyph-name="map-pin-alt" d="M511.789 960c-255.579 0-462.737-207.158-462.737-462.737 0-214.526 146.316-394.526 344.211-446.737l114.105-114.526 110.947 111.579c204 48.211 356 230.947 356 449.684 0 255.579-207.158 462.737-462.526 462.737z" />
<glyph unicode="&#xe663;" glyph-name="map-pin-liveshow" horiz-adv-x="1521" d="M1510.526 538.316c-4.421 100.421-47.158 196.421-115.158 270.316l-35.158-12.211c65.474-71.158 106.737-163.579 110.947-260.211 4.421-98.526-28.421-195.579-89.684-272.842l35.789-8.421c63.579 80.211 97.684 180.842 93.263 283.368zM1429.053 534.316c-3.579 84.421-36.842 163.368-90.105 228.632l-35.579-11.579c51.158-62.526 82.947-138.316 86.526-219.368 3.579-83.158-21.263-162.947-69.053-230.947l36.421-7.789c49.684 71.158 75.368 154.316 71.789 241.053zM1342.526 530.105c-2.737 64.842-26.737 127.158-63.368 180.632l-36.421-10.316c34.947-50.947 57.895-110.316 60.632-172.421 2.737-64.842-14.737-128.421-47.789-183.789l37.053-6.737c34.526 58.105 52.842 124.842 49.895 192.632zM49.474 535.368c3.368 96.842 44 189.474 108.842 261.263l-35.158 11.789c-67.368-74.526-109.474-170.737-113.053-271.368-3.579-102.526 31.368-202.947 95.579-282.737l35.789 8.632c-61.895 77.053-95.579 173.895-92 272.421zM130.947 532.211c2.947 81.053 34.105 157.053 84.632 220l-35.789 11.158c-52.632-65.684-85.263-145.053-88.211-229.474-2.947-86.737 23.579-169.895 73.895-240.211l36.211 8c-48 67.579-73.684 147.368-70.737 230.526zM276.421 701.474l-36.632 10.105c-36.211-53.684-59.579-116.211-61.684-181.053-2.316-68 16.421-134.316 51.579-192.211l36.842 6.947c-33.474 55.158-51.579 118.526-49.474 183.368 2.526 62.105 25.053 121.684 59.368 172.842zM760.211 960c-255.579 0-462.737-207.158-462.737-462.737 0-214.526 146.316-394.526 344.211-446.737l114.105-114.526 110.947 111.579c204 48.211 356 230.947 356 449.684 0 255.579-207.158 462.737-462.526 462.737z" />
<glyph unicode="&#xe664;" glyph-name="map-pin-waves" d="M754.105 459.789c-8 181.895-85.474 355.789-208.632 489.474l-63.579-22.105c118.526-128.842 193.263-296.211 200.842-471.368 8-178.526-51.368-354.316-162.526-494.105l65.053-15.158c115.158 145.263 176.842 327.579 168.842 513.263zM606.526 452.632c-6.526 152.842-66.737 295.789-163.158 414.105l-64.421-21.053c92.632-113.263 150.316-250.526 156.632-397.263 6.526-150.526-38.526-295.158-125.053-418.316l65.895-14.105c90.105 128.842 136.632 279.579 130.105 436.632zM449.895 445.053c-5.053 117.474-48.421 230.316-114.737 327.158l-65.895-18.737c63.368-92.211 104.842-199.789 109.895-312.211 5.053-117.474-26.737-232.632-86.526-332.842l67.158-12.211c62.316 105.053 95.368 225.895 90.105 348.842z" />
<glyph unicode="&#xe665;" glyph-name="busk-hat" d="M1023.789 554.105c9.053 87.368-384.211 161.053-466.105 161.053-46.316 0-92.842 6.737-139.368 6.737-230.316 0-324.842-27.368-375.579-65.474-31.789-24-61.263-61.474-28.421-96.211 10.737-11.368 24.632-20.211 38.105-28.632 30.947-19.368 66.947-26.947 101.053-39.368 6.947-2.526 60.421-2.947 60-9.263-1.053-18.105-29.053-168.632 41.263-230.526 95.368-83.579 161.895-74.316 318.105-78.105 54.947-1.263 156.211 35.368 178.737 88 31.158 73.053 38.316 95.579 47.158 173.684 6.947 0.632-9.895 5.053 3.579 4 44-3.158 212 22.105 221.474 114.105zM222.105 654.947c11.158 29.053 136.632 30.737 297.684 17.474 176.632-14.737 288-45.053 284.632-76-3.579-30.947-134.316-35.368-295.158-19.158-160.632 16-299.789 45.053-287.158 77.684zM951.579 514.105c-4-7.579-12.842-17.474-26.526-26.737-13.684-8.842-31.579-17.474-53.263-24-21.895-6.737-46.737-10.316-74.316-13.053-54.737-5.684-119.789-5.263-188.421 4.421-68.421 8.842-133.684 15.158-203.579 37.474-69.684 22.526-141.895 48-205.263 72.632-31.579 12-65.474 28-97.895 38.737-27.789 9.263-55.579 18.316-68.632 0.842-2.947-4-4-7.579-2.947-12 0.842-4.421 4-9.053 7.789-13.263 7.579-8.421 17.053-15.158 26.105-21.263 18.316-11.579 35.789-19.789 50.105-26.526 29.053-13.053 58.737-25.053 58.737-25.053s-30.316 9.684-60.632 19.789c-15.158 5.263-33.474 12-53.474 22.316-9.895 5.474-20.421 11.368-30.526 20.632-5.053 4.632-9.895 10.316-12.632 18.737-2.947 8.211-0.842 18.947 4.211 25.895 5.053 7.158 11.158 12.421 19.579 16.211 7.789 3.579 20.632 3.368 28.842 2.526 21.263-2.316 32.632-7.789 47.789-13.263 36.632-12.842 62.737-24.842 95.158-36.211 68.421-25.053 133.684-48.632 203.158-68 88.421-24.632 130.947-24.842 197.263-36 75.158-11.789 130.316-12.421 184.211-10.737 26.737 0.842 51.579 2.526 72.842 6.526 21.474 3.789 39.158 10.526 53.053 17.474 13.474 7.579 23.368 15.368 28 22.316 5.053 6.737 5.474 11.579 5.474 11.579s0-4.211-4.211-12z" />
<glyph unicode="&#xe900;" glyph-name="apple" d="M760.85 424.781c-0.99 116.633 95.565 173.395 99.947 176.009-54.709 79.734-139.462 90.62-169.221 91.503-71.176 7.494-140.24-42.589-176.502-42.589-36.968 0-92.809 41.846-153.034 40.645-77.472-1.203-149.925-46.017-189.651-115.678-81.995-141.972-20.853-350.638 57.75-465.363 39.302-56.264 85.246-118.961 145.33-116.77 58.811 2.404 80.794 37.463 151.762 37.463 70.331 0 90.974-37.463 152.259-36.050 63.122 0.992 102.846 56.479 140.806 113.167 45.381 64.395 63.619 127.871 64.323 131.124-1.485 0.497-122.568 46.723-123.769 186.539zM645.066 767.784c31.596 39.549 53.3 93.376 47.29 147.982-45.804-2.014-103.061-31.668-135.999-70.332-29.194-34.107-55.278-89.984-48.562-142.54 51.459-3.851 104.26 25.979 137.271 64.89z" />
<glyph unicode="&#xe901;" glyph-name="playstore" d="M107.228 888.282c-5.307-8.856-8.207-20.985-8.207-35.517v-789.764c0-14.379 2.839-26.474 8.207-35.454l429.983 429.949v0.775l-429.983 430.012zM573.995 457.495l137.632-137.688 170.151 96.678c20.242 11.542 31.475 26.262 31.475 41.382s-11.233 29.808-31.475 41.352l-170.151 96.649-137.632-138.373zM119.819 3.229c13.207-6.634 32.031-4.23 51.595 6.911l516.266 293.341-133.805 133.835-434.056-434.087zM121.114 911.487l432.021-431.957 133.124 133.185-513.734 291.921c-19.502 11.049-38.142 13.518-51.41 6.851z" />
</font>
</defs>
</svg>
